<?xml version="1.0" standalone="no"?>
<!DOCTYPE svg PUBLIC "-//W3C//DTD SVG 1.1//EN" "http://www.w3.org/Graphics/SVG/1.1/DTD/svg11.dtd" >
<svg xmlns="http://www.w3.org/2000/svg" xmlns:xlink="http://www.w3.org/1999/xlink" version="1.1">
<metadata>
Created by FontForge 20170731 at Tue Aug  3 10:46:03 2021
 By Aleksey,,,
Copyright (c) 2010-2014 by Font Diner Inc. All rights reserved. Filmotype is a trademark of Font Diner Inc.
</metadata>
<defs>
<font id="FilmotypeKingstonCyr" horiz-adv-x="679" >
  <font-face 
    font-family="Filmotype Kingston Cyr"
    font-weight="400"
    font-stretch="normal"
    units-per-em="2048"
    panose-1="2 15 5 6 5 0 0 2 12 6"
    ascent="1638"
    descent="-410"
    x-height="592"
    cap-height="1350"
    bbox="-442 -637 3170 1743"
    underline-thickness="81"
    underline-position="-306"
    unicode-range="U+0020-FB04"
  />
<missing-glyph horiz-adv-x="1024" 
d="M881 0h-738v1434h738v-1434zM774 100v1233h-526v-1233h526z" />
    <glyph glyph-name="ff" unicode="ff" 
d="M547 592l-256 -49q-99 -253 -172 -508q-6 -23 -11 -35t-17 -23.5t-28 -11.5q-15 0 -30 9t-15 28q0 41 47 189t117 333q-105 -20 -116 -20q-21 0 -21 12q0 21 32 36t132 34q157 401 272 561q20 25 29 35.5t31 31.5t43.5 30t44.5 9q55 0 104.5 -44t63.5 -81q15 31 45 74
q18 24 29 36.5t31.5 32t42.5 29t46 9.5q60 0 114 -52.5t54 -80.5q0 -25 -22 -25q-1 0 -62 29.5t-90 29.5q-33 0 -121.5 -156.5t-185.5 -387.5q38 6 88.5 14t78 12t32.5 4q10 0 15 -5.5t5 -12.5q0 -12 -10 -22t-25 -13q-44 -4 -209 -33q-120 -289 -200 -575q-5 -21 -10 -34.5
t-16.5 -24.5t-27.5 -11t-31.5 9t-15.5 28q0 42 56.5 211.5t138.5 378.5zM385 614l184 31q133 315 205 449q-1 0 -61 28.5t-90 28.5q-34 0 -122.5 -156.5t-185.5 -392.5z" />
    <glyph glyph-name="fi" unicode="fi" horiz-adv-x="659" 
d="M330 635l55 8q184 35 254 35q26 -1 42.5 -18t16.5 -39q0 -9 -35 -71t-76.5 -136.5t-76.5 -165.5t-35 -152q0 -32 6.5 -46.5t30.5 -14.5q79 0 238 252q3 4 12.5 20.5t18.5 30t19.5 28.5t19 24t14.5 9q14 0 14 -28q0 -13 -10.5 -42t-18.5 -42q-176 -310 -291 -310
q-45 0 -102 37q-51 34 -51 109q0 73 84 274q66 152 123 232q-118 -19 -277 -51q-106 -258 -186 -543q-6 -23 -11 -35t-17 -23.5t-28 -11.5q-15 0 -30 9t-15 28q0 41 52 201.5t127 351.5q-115 -23 -131 -23q-21 0 -21 13q0 14 11 23t49.5 20.5t113.5 25.5q162 397 262 533
q20 25 29 35.5t31 31.5t43.5 30t44.5 9q60 0 114 -53t54 -82q0 -24 -23 -24q-1 0 -61 28.5t-90 28.5q-33 0 -117 -147t-176 -369zM717 778q-29 0 -50.5 20.5t-21.5 51.5q0 41 42.5 92t92.5 51q19 0 32 -20.5t13 -42.5q0 -53 -38.5 -102.5t-69.5 -49.5z" />
    <glyph glyph-name="fl" unicode="fl" horiz-adv-x="743" 
d="M608 408q-65 -189 -65 -273q0 -59 12 -82.5t41 -23.5q35 0 82.5 43t78 85t58.5 87q21 33 49 79.5t41.5 67.5t18.5 21q6 0 12 -4.5t6 -16.5q0 -13 -19.5 -60t-55 -109.5t-77.5 -121t-93.5 -99t-96.5 -40.5q-71 0 -111 55t-40 131q0 142 78 352t190 421q141 282 221 282
q47 0 82 -25.5t35 -78.5q0 -64 -75 -205t-182 -281.5t-190 -203.5zM330 635l55 8q11 2 44 8.5t59 10.5t40 4q23 0 23 -21q0 -10 -10.5 -19.5t-24.5 -11.5q-119 -16 -211 -36q-116 -291 -186 -543q-6 -23 -11 -35t-17 -23.5t-28 -11.5q-15 0 -30 9t-15 28q0 41 52 203
t127 352q-121 -25 -131 -25q-21 0 -21 13q0 21 33.5 36t140.5 35q160 392 262 531q20 25 29 35.5t31 31.5t43.5 30t44.5 9q60 0 114 -53t54 -82q0 -24 -23 -24q-1 0 -61 28.5t-90 28.5q-33 0 -117 -147t-176 -369zM983 1128q-85 -86 -179 -264t-165 -370q100 97 220 312.5
t124 321.5z" />
    <glyph glyph-name="ffi" unicode="ffi" horiz-adv-x="993" 
d="M547 590l-256 -47q-103 -266 -172 -508q-6 -23 -11 -35t-17 -23.5t-28 -11.5q-15 0 -30 9t-15 28q0 41 47 189t117 333q-105 -20 -116 -20q-21 0 -21 12q0 14 9 22.5t44.5 19.5t110.5 26q159 406 272 563q20 25 29 35.5t31 31.5t43.5 30t44.5 9q55 0 104.5 -44t63.5 -81
q15 31 45 74q18 24 29 36.5t31.5 32t42.5 29t46 9.5q60 0 114 -52.5t54 -80.5q0 -25 -22 -25q-1 0 -62 29.5t-90 29.5q-33 0 -121.5 -156.5t-185.5 -387.5q20 2 59 10q203 33 254 33q27 -1 44.5 -18.5t17.5 -39.5q0 -9 -38 -76t-83 -147t-83 -175.5t-38 -156.5
q0 -32 6.5 -46.5t30.5 -14.5q78 0 237 252q4 6 23.5 38t35.5 53t25 21q6 0 11.5 -8t5.5 -20t-12 -40.5t-21 -43.5q-171 -310 -287 -310q-45 0 -106 37q-49 32 -49 109q0 85 86 274q28 72 68.5 146t70.5 116q-155 -25 -283 -51q-119 -283 -200 -573q-5 -21 -10 -34.5
t-16.5 -24.5t-27.5 -11t-31.5 9t-15.5 28q0 42 57 212t138 376zM315 602l254 43q133 315 205 449q-1 0 -61 28.5t-90 28.5q-34 0 -122.5 -156.5t-185.5 -392.5zM1069 809q-30 0 -50 20t-20 52q0 42 42.5 92.5t93.5 50.5q19 0 31 -20.5t12 -45.5q0 -53 -39 -101t-70 -48z" />
    <glyph glyph-name="ffl" unicode="ffl" horiz-adv-x="1079" 
d="M547 592l-256 -49q-99 -253 -172 -508q-6 -23 -11 -35t-17 -23.5t-28 -11.5q-15 0 -30 9t-15 28q0 41 47 189t117 333q-105 -20 -116 -20q-21 0 -21 12q0 21 32 36t132 34q157 401 272 561q20 25 29 35.5t31 31.5t43.5 30t44.5 9q55 0 104.5 -44t63.5 -81q15 31 45 74
q18 24 29 36.5t31.5 32t42.5 29t46 9.5q60 0 114 -52.5t54 -80.5q0 -25 -22 -25q-1 0 -62 29.5t-90 29.5q-33 0 -121.5 -156.5t-185.5 -387.5q38 6 88.5 14t78 12t32.5 4q10 0 15 -5.5t5 -12.5q0 -12 -10 -22t-25 -13q-44 -4 -209 -33q-120 -289 -200 -575q-5 -21 -10 -34.5
t-16.5 -24.5t-27.5 -11t-31.5 9t-15.5 28q0 42 56.5 211.5t138.5 378.5zM946 408q-67 -194 -67 -273q0 -59 12 -82.5t41 -23.5q35 0 82.5 43t78 85t58.5 87q20 31 48.5 79t42.5 68.5t20 20.5q2 0 5 -1.5t7 -6.5t4 -13q0 -18 -31.5 -85t-78 -145t-111.5 -139t-121 -61
q-71 0 -110.5 55t-39.5 131q0 142 78 352.5t189 420.5q15 30 21 41t23.5 43.5t28 48.5t28 43.5t31 42.5t29.5 31.5t31 24t29 7.5q48 0 82.5 -25.5t34.5 -78.5q0 -64 -75 -205t-181.5 -281.5t-188.5 -203.5zM385 614l184 31q133 315 205 449q-1 0 -61 28.5t-90 28.5
q-34 0 -122.5 -156.5t-185.5 -392.5zM1319 1128q-84 -85 -177 -262t-167 -372q64 61 144 183.5t138.5 251.5t61.5 199z" />
    <glyph glyph-name="f_j" unicode="fj" horiz-adv-x="563" 
d="M330 635l55 8q157 27 207 27q21 0 39 -10.5t18 -24.5q0 -17 -45.5 -140t-126 -368.5t-145.5 -503.5q-11 -53 -46 -90t-85 -37q-64 0 -123.5 21.5t-96 51t-58 56t-21.5 39.5q0 8 10 12.5t20 4.5q17 0 39.5 -16.5t43 -36t53.5 -36t69 -16.5q17 0 26 1.5t22.5 8.5t24 24
t19.5 46q291 877 322 960q-123 -18 -246 -41q-108 -264 -186 -540q-6 -23 -11 -35t-17 -23.5t-28 -11.5q-15 0 -30 9t-15 28q0 41 52 201.5t127 351.5q-28 -5 -61.5 -11t-50 -9t-19.5 -3q-21 0 -21 13q0 21 33.5 36t140.5 35q160 392 262 531q20 25 29 35.5t31 31.5t43.5 30
t44.5 9q60 0 114 -53t54 -82q0 -24 -23 -24q-1 0 -61 28.5t-90 28.5q-33 0 -117 -147t-176 -369zM680 795q-19 0 -38 16.5t-19 38.5q0 39 45 95t75 56q16 0 35 -15t19 -34q0 -56 -40.5 -106.5t-76.5 -50.5z" />
    <glyph glyph-name="f_t" unicode="ft" horiz-adv-x="671" 
d="M874 709l-176 -45q-99 -201 -171 -378t-72 -237q0 -14 7.5 -21.5t14 -8.5t19.5 -1q90 0 265 269q3 6 5 8q6 8 16.5 23.5t16 23t12.5 16.5t12 13t8 4q11 0 11 -15q0 -8 -8 -32q-35 -78 -85.5 -157t-117 -143.5t-119.5 -64.5q-50 0 -93.5 38.5t-43.5 94.5t39 160t159 379
q-112 -28 -268 -60q-108 -264 -186 -540q-6 -23 -11 -35t-17 -23.5t-28 -11.5q-15 0 -30 9t-15 28q0 41 52 201.5t127 351.5q-106 -23 -131 -23q-21 0 -21 13q0 20 33.5 35.5t142.5 40.5q154 380 260 526q20 25 29 35.5t31 31.5t43.5 30t44.5 9q60 0 114 -53t54 -82
q0 -24 -23 -24q-1 0 -61 28.5t-90 28.5q-33 0 -115.5 -144.5t-175.5 -365.5l53 12l217 45l78 172q12 31 35 48.5t49 17.5q11 0 27 -18.5t16 -36.5q0 -6 -6 -15l-72 -139q141 31 160 31q22 0 22 -19t-37 -30z" />
    <glyph glyph-name="t_t" unicode="tt" 
d="M858 719h-123q-109 -221 -189.5 -414.5t-80.5 -255.5q0 -14 7 -21.5t14 -8.5t20 -1q90 0 265 269q3 6 5 8q53 80 62 80q12 0 12 -15q0 -20 -8 -32q-37 -81 -87 -160.5t-115 -142t-118 -62.5q-51 0 -95 38.5t-44 94.5q0 19 2 31q-115 -164 -205 -164q-49 0 -93 39t-44 94
q0 57 43.5 170t183.5 430l-72 -4t-54.5 -3t-20.5 -1q-21 0 -21 19q0 8 9 18.5t20 11.5l162 11l53 122q13 30 37 48t51 18q10 0 25.5 -19t15.5 -36q0 -9 -4 -15l-57 -108q158 8 229 14l62 137q12 30 36.5 48t51.5 18q9 0 26 -19t17 -36q0 -8 -5 -15l-65 -125q31 2 72 2
q100 0 100 -24q0 -13 -21.5 -26t-58.5 -13zM618 713q-47 -1 -233 -11q-105 -213 -182.5 -401.5t-77.5 -251.5q0 -14 7 -21.5t14 -8.5t20 -1q47 0 109.5 58.5t107 124t63.5 110.5q63 158 172 402z" />
    <glyph glyph-name=".notdef" horiz-adv-x="1024" 
d="M881 0h-738v1434h738v-1434zM774 100v1233h-526v-1233h526z" />
    <glyph glyph-name=".null" horiz-adv-x="0" 
 />
    <glyph glyph-name="nonmarkingreturn" horiz-adv-x="682" 
 />
    <glyph glyph-name="space" unicode=" " horiz-adv-x="430" 
 />
    <glyph glyph-name="exclam" unicode="!" horiz-adv-x="585" 
d="M315 59q0 -47 -32 -72.5t-72 -25.5q-32 0 -54 14.5t-22 42.5q0 50 34 79.5t75 29.5q30 0 50.5 -18.5t20.5 -49.5zM297 268q-14 0 -29.5 10.5t-15.5 24.5q0 7 11.5 47t40 121.5t68.5 183t106 249.5t143 304q4 8 14 29t15 30t14.5 25.5t17.5 24t19 17t24.5 13t28.5 3.5
q23 0 51.5 -18.5t28.5 -33.5q0 -4 -14 -25.5t-49.5 -81t-84 -149.5t-130 -261.5t-175.5 -387.5q-6 -15 -14 -34t-12 -29t-9.5 -22t-10 -18t-10.5 -12t-12.5 -8t-15.5 -2z" />
    <glyph glyph-name="quotedbl" unicode="&#x22;" horiz-adv-x="444" 
d="M582 1180q-38 -44 -56.5 -64t-49 -53t-48.5 -47.5t-27 -14.5q-13 0 -20.5 11t-7.5 26q0 41 63 111q46 54 85 108.5t53.5 72.5t27.5 18q11 0 29 -21t18 -31q0 -20 -12.5 -44t-54.5 -72zM797 1180q-10 -11 -31 -34.5t-32.5 -36.5t-29.5 -32.5t-29.5 -30.5t-24.5 -23
t-21.5 -17t-14.5 -5q-11 0 -18.5 11.5t-7.5 25.5q0 43 61 111q31 36 58.5 72t42.5 57l27.5 38.5t21 24.5t16.5 7q13 0 31 -21t18 -31q0 -20 -12.5 -44t-54.5 -72z" />
    <glyph glyph-name="numbersign" unicode="#" horiz-adv-x="1097" 
d="M745 633l-262 -6q-47 -111 -98 -258q-14 -41 -24.5 -54.5t-30.5 -13.5q-43 0 -43 37l9 26q51 151 95 263q-76 -2 -137 -2q-9 0 -16 5.5t-7 14.5q0 20 12 36.5t31 16.5q32 0 150 4q31 77 82 197q-86 -2 -154 -2q-22 0 -22 21t11 37t30 16q34 0 166 4q153 356 163 356
q27 0 50.5 -14.5t23.5 -40.5q0 -5 -15 -38t-54 -114t-70 -147q168 4 256 4q147 350 160 350q27 0 50 -14.5t23 -40.5q0 -3 -6 -17t-19.5 -43t-27.5 -58t-39 -81t-45 -94q37 0 74 0.5t60 1t26 0.5q20 0 20 -22q0 -18 -15 -35t-36 -17q-58 -4 -164 -4q-22 -46 -84 -196
q41 0 83 0.5t68.5 1t31.5 0.5q18 0 18 -23q0 -18 -15 -34.5t-34 -16.5q-14 -1 -40 -1.5t-69 -1t-75 -1.5q-40 -96 -101 -266q-14 -41 -24.5 -54.5t-30.5 -13.5q-43 0 -43 37l7 19q50 155 101 276zM514 705l262 4q14 35 42 100t40 96q-168 -4 -258 -4q-37 -79 -86 -196z" />
    <glyph glyph-name="dollar" unicode="$" horiz-adv-x="622" 
d="M582 1327h2q2 4 11 25t13 30t11.5 23t14 19.5t13.5 5.5q8 0 17.5 -6.5t9.5 -18.5q0 -11 -7 -27t-17.5 -36t-14.5 -31q74 -38 74 -111q0 -43 -26 -100.5t-65 -57.5q-20 0 -20 39q0 23 13.5 73t13.5 71q0 22 -12.5 34.5t-34.5 12.5q-56 0 -101 -55.5t-45 -102.5
q0 -50 29.5 -105t65 -94.5t65 -83.5t29.5 -73q0 -35 -46 -71t-88 -36q-50 0 -112 15q-4 -9 -12 -26.5t-13.5 -30t-12.5 -25.5t-14 -20t-14 -7q-8 0 -16 6.5t-8 18.5q0 10 6.5 26.5t18.5 40t16 31.5q-79 32 -119 72q-53 44 -53 69q0 10 6.5 16.5t13.5 6.5q8 0 23.5 -9.5
t32 -22.5t20.5 -15q95 -76 196 -76q32 0 51 12.5t19 30.5q0 26 -29.5 65t-64.5 73t-64.5 79.5t-29.5 83.5q0 96 77.5 179t176.5 83z" />
    <glyph glyph-name="percent" unicode="%" horiz-adv-x="997" 
d="M666 920q-17 -31 -47 -75t-73 -99t-90.5 -92.5t-84.5 -37.5q-58 0 -89.5 37t-31.5 99q0 72 80.5 223.5t184 277t159.5 125.5q15 0 64.5 -41t49.5 -80q0 -90 -94 -282q-2 -6 -2 -14q0 -27 33 -27q58 0 121 49t229 213q10 9 23.5 23t22 22.5t18 17t17 13t13.5 4.5
q10 0 17.5 -13t7.5 -26q1 -12 -20 -32t-64.5 -57.5t-75.5 -72.5q-69 -74 -197 -210t-192 -205t-154.5 -167.5t-158.5 -177.5t-129 -155q-7 -9 -30 -37t-42.5 -52.5t-41.5 -50.5t-37 -41.5t-19 -15.5t-10.5 15t-6.5 26t21 39q494 599 751 856q-34 -12 -57 -12q-47 0 -65 33z
M555 -35q-55 0 -90 41.5t-35 110.5q0 42 14 88q9 32 40 95t78.5 139.5t100 145t110.5 114.5t104 46q26 0 53.5 -58.5t27.5 -96.5q0 -22 -6 -37q-38 -133 -95.5 -249.5t-114 -187.5t-106.5 -111t-81 -40zM545 20q50 0 127.5 100t137 218.5t79.5 191.5q8 20 8 50q0 57 -37 57
q-51 0 -131 -95.5t-140.5 -203t-76.5 -162.5q-20 -61 -20 -100q0 -32 13.5 -44t39.5 -12zM641 991q0 94 18 158q3 12 11 37t14 44.5t6 24.5q0 11 -8 11q-37 0 -111 -75.5t-148 -194t-104 -222.5q-12 -50 -12 -59q0 -23 10.5 -35.5t17.5 -14t13 -1.5q71 0 168 117t125 210z
" />
    <glyph glyph-name="ampersand" unicode="&#x26;" horiz-adv-x="1521" 
d="M1167 379q19 -22 19 -55q0 -79 -115.5 -173.5t-271.5 -157.5t-271 -63q-68 0 -139.5 18.5t-136.5 53t-106.5 93t-41.5 130.5q0 88 34.5 166t94.5 138t144.5 109t180 83t204.5 57q-43 21 -67.5 71t-24.5 105q0 74 43.5 155t110 143t149.5 102.5t157 40.5q17 0 38.5 -5
t54.5 -19t72.5 -47t76.5 -81q27 -36 27 -100q0 -38 -26.5 -101t-67.5 -114t-76 -51q-17 0 -30 24t-13 45q0 23 26 67t52 97t26 96q0 50 -34.5 76.5t-84.5 26.5q-65 0 -154 -52t-159 -142.5t-70 -180.5q0 -147 115 -152q50 -2 103 -23t53 -44q0 -12 -11 -23.5t-22 -11.5
q-248 -9 -442 -76.5t-296 -172t-102 -226.5q0 -46 28.5 -81t74.5 -53.5t93.5 -27t94.5 -8.5q106 1 223 39t202.5 89.5t141.5 103.5t56 81q0 15 -9.5 21t-35.5 6q-57 0 -196.5 -9.5t-233.5 -9.5q-131 0 -131 47q0 11 11 20t21 9q100 0 430.5 27.5t411.5 27.5
q49 0 100.5 -11.5t51.5 -29.5t-14 -33.5t-31 -15.5q-213 0 -308 -18z" />
    <glyph glyph-name="quotesingle" unicode="'" horiz-adv-x="229" 
d="M582 1180q-38 -44 -56.5 -64t-49 -53t-48.5 -47.5t-27 -14.5q-13 0 -20.5 11t-7.5 26q0 41 63 111q46 54 85 108.5t53.5 72.5t27.5 18q11 0 29 -21t18 -31q0 -20 -12.5 -44t-54.5 -72z" />
    <glyph glyph-name="parenleft" unicode="(" horiz-adv-x="405" 
d="M227 -94q0 -10 -13 -18.5t-24 -8.5q-21 0 -32 8q-33 25 -33 209q0 305 205 682q88 162 236 359.5t184 197.5q12 0 25 -20.5t13 -48.5q0 -16 -153 -197q-58 -73 -113 -156.5t-111 -189.5t-97.5 -212t-68 -225t-26.5 -227q0 -21 4 -75t4 -78z" />
    <glyph glyph-name="parenright" unicode=")" horiz-adv-x="581" 
d="M74 -129q-15 0 -27 9.5t-12 23.5q1 15 10.5 29t24.5 29t20 22q177 235 302.5 543t125.5 565q0 48 -8.5 89t-18 61.5t-18 35.5t-8.5 18q0 8 6.5 15.5t24.5 7.5q48 0 64.5 -9.5t25.5 -31.5q17 -34 26 -74t10 -65.5t1 -71.5q0 -205 -108 -500t-269 -524q-21 -32 -45.5 -65
t-63.5 -70t-63 -37z" />
    <glyph glyph-name="asterisk" unicode="*" horiz-adv-x="352" 
d="M621 1135l63 -43q10 -13 10 -27q0 -10 -8.5 -18.5t-19.5 -8.5q-5 0 -10.5 2.5t-14 8t-16 11t-21 15t-24.5 17.5q-20 -46 -35 -101q-7 -24 -33 -24q-27 0 -27 30q0 6 37 97q-40 -18 -98 -52q-17 -10 -29 -10q-22 0 -22 17q0 25 49 55l82 37l-66 33q-6 3 -6 8
q0 10 11.5 26.5t17.5 16.5q16 0 98 -49q59 129 72 129q9 0 23 -8.5t14 -16.5q0 -2 -5.5 -13l-17 -34t-20.5 -43q102 41 139 41q10 0 16 -8.5t6 -18.5q0 -6 -4 -10q-3 -3 -23.5 -10.5t-61.5 -21.5t-76 -27z" />
    <glyph glyph-name="plus" unicode="+" horiz-adv-x="647" 
d="M655 526l-213 -6q-64 -219 -71 -233q-3 -17 -19 -17q-47 0 -47 35q0 25 55 213q-43 -1 -99 -2t-84.5 -1.5t-31.5 -0.5q-10 0 -17 6t-7 15q0 20 12 36.5t31 16.5l219 6l72 237q4 13 14 13q31 0 41 -8.5t10 -28.5q0 -16 -57 -211q167 6 225 6q19 0 19 -22q0 -18 -15.5 -36
t-36.5 -18z" />
    <glyph glyph-name="comma" unicode="," horiz-adv-x="321" 
d="M223 41q-46 -46 -86 -78q-11 -9 -34 -32.5t-39 -35.5t-31 -12q-11 0 -17 6q-18 12 -18 31q0 10 12.5 26.5t32 36.5t23.5 25q6 6 44.5 49t68 71t40.5 28q20 0 34.5 -15.5t14.5 -36.5q0 -8 -2.5 -15.5t-9 -15t-9.5 -11t-13 -12t-11 -9.5z" />
    <glyph glyph-name="hyphen" unicode="-" horiz-adv-x="559" 
d="M565 371q-49 -1 -148.5 -4t-178.5 -6t-86 -3q-23 0 -23 21t11.5 37t31.5 16q74 2 179 6t166.5 6t80.5 2q18 0 18 -22q0 -18 -15 -35.5t-36 -17.5z" />
    <glyph glyph-name="period" unicode="." horiz-adv-x="307" 
d="M156 -10q-76 0 -76 59q0 37 32 72t64 35q31 0 53.5 -17t22.5 -43q0 -20 -32.5 -63t-63.5 -43z" />
    <glyph glyph-name="slash" unicode="/" horiz-adv-x="1128" 
d="M1649 1409q0 -14 -9.5 -27.5t-33 -32.5t-50 -39t-73 -55.5t-90.5 -72.5q-662 -565 -1379 -1286q-11 -11 -24 -11q-6 0 -8 2q-11 10 -18 26.5t-7 27.5q0 28 332.5 354t731.5 685.5t552 459.5q16 12 29 12t30 -16t17 -27z" />
    <glyph glyph-name="zero" unicode="0" horiz-adv-x="1210" 
d="M604 -37q-105 0 -172.5 20.5t-152.5 75.5q-134 90 -134 271q0 105 40 229t105.5 238.5t151 222.5t174 188t177.5 128t159 48q20 0 57.5 -8.5t88.5 -25.5t102 -46.5t95.5 -66.5t72 -91.5t27.5 -115.5q0 -125 -44 -273t-123 -286.5t-177 -253.5t-216 -184.5t-231 -69.5z
M506 39q106 0 205 43.5t173.5 114.5t139 162t109 186t76 186t46.5 162t15 115q0 65 -18.5 116.5t-46.5 82.5t-65 51.5t-70.5 28t-65.5 7.5q-70 0 -155 -48.5t-166 -127.5t-158 -183t-135 -211t-93 -216t-35 -195q0 -53 13.5 -100t41.5 -87t76.5 -63.5t112.5 -23.5z" />
    <glyph glyph-name="one" unicode="1" horiz-adv-x="403" 
d="M166 -37q-21 0 -38 9.5t-17 29.5q0 43 150.5 491t150.5 457q0 17 -21.5 36.5t-21.5 39.5q0 31 99 178.5t122 147.5q12 0 46 -21t34 -39q0 -1 -47.5 -117.5t-152.5 -412t-218 -660.5q-2 -8 -8.5 -34.5t-11.5 -39.5t-14 -31t-22 -26t-30 -8z" />
    <glyph glyph-name="two" unicode="2" horiz-adv-x="980" 
d="M172 84q69 0 295 19t305 20q35 0 35 -21q0 -30 -102 -45q-82 -14 -241.5 -43.5t-274.5 -51t-121 -21.5q-22 0 -41 25.5t-19 51.5q0 30 88 113.5t219 190t138 112.5q34 30 121 104.5t150.5 130t147 138t137.5 149t92 142t38 137.5q0 32 -19 54t-53 22q-135 0 -434 -271
q-12 -11 -83.5 -109t-144.5 -178.5t-112 -80.5q-53 0 -53 28q0 27 67 112.5t164 186t222 199t225 143.5q71 33 126 33q90 0 149.5 -57.5t59.5 -122.5q0 -47 -15 -96.5t-37 -91t-59.5 -88.5t-69 -80t-80.5 -77t-78.5 -68t-77.5 -62q-70 -58 -239.5 -186t-281 -220
t-143.5 -141z" />
    <glyph glyph-name="three" unicode="3" horiz-adv-x="1181" 
d="M866 727q4 0 11.5 1t11.5 1q61 0 125.5 -29.5t107.5 -78t43 -97.5q0 -81 -78 -182t-191 -183.5t-247.5 -139t-240.5 -56.5q-170 0 -292 65.5t-122 147.5q0 34 25.5 54t52.5 20q21 0 36 -30.5t31 -71.5t37 -58q37 -33 158 -33q114 0 247.5 49t240.5 121.5t179 161
t72 162.5q0 44 -44 73t-103 29q-62 0 -118.5 -14t-88 -31t-55.5 -31t-29 -14q-47 0 -47 39q0 22 12 40.5t25 25.5q540 358 540 571q0 26 -23.5 53t-68.5 27q-41 0 -95 -18.5t-114.5 -56t-121 -105.5t-101.5 -154q-7 -15 -27 -47.5t-50.5 -74.5t-68 -72.5t-67.5 -30.5
q-14 0 -28.5 7t-14.5 19q0 32 42 102t111.5 152t150 158.5t168.5 127t155 50.5q38 0 77 -10t75.5 -30t59.5 -56t23 -82q0 -65 -31.5 -130.5t-91 -126.5t-119 -109.5t-139.5 -104.5z" />
    <glyph glyph-name="four" unicode="4" horiz-adv-x="1095" 
d="M1006 424h-88q-57 -148 -140 -387q-11 -28 -15.5 -38t-14 -22.5t-21 -16t-29.5 -3.5q-15 0 -25.5 12t-10.5 27q0 30 30 133q49 161 96 291q-146 -4 -276.5 -14t-200 -17.5t-82.5 -7.5q-41 0 -59 11.5t-18 45.5q0 29 56 91.5t106.5 107t103.5 88.5q390 320 667 514
q9 7 30.5 23t35.5 26t31 18.5t28 8.5q14 0 53.5 -20t39.5 -31q0 -3 -10 -20t-41.5 -78t-71.5 -146q-26 -56 -71 -151.5t-63.5 -134.5t-44.5 -101t-49 -121q94 -3 154 -14q78 -11 78 -35q0 -39 -178 -39zM1055 1100q-165 -89 -389 -268t-363 -347q284 26 522 29
q29 76 109.5 277t120.5 309z" />
    <glyph glyph-name="five" unicode="5" horiz-adv-x="940" 
d="M655 1202q-38 -68 -66.5 -125.5t-61.5 -130.5t-52 -112q110 10 154 10q82 0 147 -16.5t104.5 -42.5t66 -59.5t36.5 -64.5t10 -61q0 -72 -59 -181.5t-146 -210t-199 -173t-206 -72.5q-45 0 -103 10.5t-113 29.5t-92.5 49t-37.5 65q0 27 15.5 43t39.5 16q49 0 76 -57
q13 -23 19 -32t21 -25t35 -22.5t48 -6.5q90 0 199.5 69t195.5 164t144.5 198t58.5 169q0 64 -26 91.5t-91 27.5q-67 0 -137.5 -16t-116 -34.5t-84.5 -34.5t-51 -16q-23 0 -45.5 37t-22.5 64q0 18 25 63q21 45 63.5 135t61 131t41 97.5t33.5 97.5q6 20 19 26t50 11
q221 30 439 30q118 0 118 -26q0 -17 -43 -33t-115.5 -29.5t-135 -23t-135 -19t-81.5 -10.5z" />
    <glyph glyph-name="six" unicode="6" horiz-adv-x="972" 
d="M438 711q158 155 369 155q65 0 116 -17t86 -61t35 -112q0 -141 -83 -309.5t-210.5 -287t-242.5 -118.5q-73 0 -129.5 12t-93 34t-61 48.5t-37 61t-17 65t-4.5 66.5q0 82 32 195.5t86.5 235t132 241t164 213t188.5 152t198 58.5q45 0 84 -9.5t75.5 -30.5t58 -62.5
t21.5 -99.5q0 -36 -21 -63t-46 -27q-35 0 -50.5 35.5t-15.5 119.5q0 103 -74 103q-71 0 -179 -85t-214.5 -225.5t-167.5 -287.5zM424 27q86 0 175 64.5t154 158.5t106.5 202t41.5 193q0 73 -39 120.5t-114 47.5q-81 0 -163 -48t-146 -128.5t-104 -195.5t-40 -240
q0 -45 10.5 -82t41 -64.5t77.5 -27.5z" />
    <glyph glyph-name="seven" unicode="7" horiz-adv-x="806" 
d="M971 1202q-373 -63 -492 -63q-36 0 -77.5 10t-41.5 35q0 23 339 80t384 57q21 0 36.5 -36t15.5 -52q0 -13 -10.5 -27.5t-28 -32t-23.5 -26.5q-460 -537 -821 -1100q-7 -11 -15.5 -24t-13 -20t-9.5 -15t-8 -12t-7 -7.5t-7 -4.5t-6 -1q-19 0 -30 17.5t-11 39.5q0 32 98 194
t298.5 439t429.5 549z" />
    <glyph glyph-name="eight" unicode="8" horiz-adv-x="1093" 
d="M762 727q12 -13 48 -51t50 -53.5t44.5 -50.5t44 -55t34 -52.5t29.5 -57.5t16.5 -55.5t7.5 -60.5q0 -71 -36.5 -131t-93 -99.5t-127.5 -67.5t-138.5 -40t-126.5 -12q-24 0 -62 5t-94 20.5t-102 40t-79.5 70t-33.5 103.5q0 177 203 346q128 111 260 207q-153 171 -153 293
q0 80 55 150t138 114t175.5 69t173.5 25q235 0 314 -196q53 32 155 86q34 19 89.5 43t76.5 24q15 0 15 -10q0 -33 -17.5 -50.5t-66.5 -41.5q-135 -70 -365 -214t-434 -298zM674 659q-436 -348 -436 -526q0 -38 40.5 -65.5t89 -38.5t91.5 -11q93 0 197 39.5t180.5 114
t76.5 160.5q0 15 -4 31t-13 34t-18 33t-26 36t-29 35.5t-35 39t-35.5 38t-39.5 40.5t-39 40zM1192 1122q-37 93 -104.5 141t-180.5 48q-43 0 -95.5 -11.5t-109 -36t-94 -72t-37.5 -110.5q0 -126 125 -280q232 168 496 321z" />
    <glyph glyph-name="nine" unicode="9" horiz-adv-x="1015" 
d="M895 551q-67 -74 -177 -113t-222 -39q-118 0 -188 64t-70 180q0 84 55 187.5t140 196t181 171.5t186.5 125.5t147.5 46.5q76 0 230 -135q7 12 18 33t15 28.5t12.5 19.5t15 16t16 7.5t21.5 3.5q17 0 49.5 -14t32.5 -29l-10 -16q-11 -17 -33.5 -56.5t-53 -99t-75.5 -159
t-96 -221.5t-119 -301t-140 -384q-3 -10 -7.5 -27.5t-7.5 -26.5t-9.5 -20t-18.5 -15.5t-30 -4.5q-51 0 -51 39q0 25 66.5 215.5t121.5 327.5zM805 580q107 87 214 290.5t107 290.5q0 46 -40 77.5t-89 31.5q-78 0 -190.5 -69.5t-212 -169.5t-170 -221t-70.5 -214
q0 -60 45 -96.5t109 -36.5q93 0 160 30t137 87z" />
    <glyph glyph-name="colon" unicode=":" horiz-adv-x="417" 
d="M156 -10q-76 0 -76 59q0 37 32 72t64 35q31 0 53.5 -17t22.5 -43q0 -20 -32.5 -63t-63.5 -43zM442 563q0 -30 -39.5 -68t-76.5 -38q-30 0 -51 15.5t-21 45.5q0 33 38.5 76t76.5 43q31 0 52 -28t21 -46z" />
    <glyph glyph-name="semicolon" unicode=";" horiz-adv-x="487" 
d="M193 -57q-112 -101 -154 -101q-11 0 -26 9t-15 16q0 8 29 37q28 26 88.5 86t77.5 76q69 79 86 79q13 0 31 -20.5t18 -28.5q0 -31 -135 -153zM512 563q0 -41 -40.5 -79t-78.5 -38q-47 0 -47 62q0 51 31 79.5t69 28.5q28 0 47 -14t19 -39z" />
    <glyph glyph-name="less" unicode="&#x3c;" horiz-adv-x="841" 
d="M205 557q27 -18 117 -80t133 -89.5t117.5 -65t140.5 -56.5q26 -9 32.5 -13.5t6.5 -14.5q0 -29 -19.5 -44.5t-46.5 -15.5q-34 0 -237.5 119t-329.5 213q-35 21 -35 53q0 20 14 31t49 27q303 140 689 391q23 15 42.5 31t28.5 24t13 8q10 0 10 -26q0 -45 -12.5 -69
t-55.5 -52q-275 -178 -657 -371z" />
    <glyph glyph-name="equal" unicode="=" horiz-adv-x="698" 
d="M621 643q-48 -1 -173 -4t-228 -5.5t-111 -2.5q-9 0 -16 5.5t-7 14.5q0 21 11.5 37.5t31.5 16.5q443 14 522 14q21 0 21 -23q0 -18 -16 -35.5t-35 -17.5zM582 410q-49 -1 -173.5 -4t-227.5 -6t-111 -3q-9 0 -16 6t-7 15q0 21 11.5 37t31.5 16q443 14 522 14q21 0 21 -22
q0 -18 -16 -35.5t-35 -17.5z" />
    <glyph glyph-name="greater" unicode="&#x3e;" horiz-adv-x="868" 
d="M768 600q-37 24 -119 80t-129.5 87t-120.5 67t-139 55q-25 8 -32 14t-7 15q0 29 19 44t47 15q33 0 237.5 -119.5t329.5 -212.5q35 -24 35 -53q0 -14 -9.5 -24.5t-19 -15.5t-35.5 -17q-283 -129 -690 -392q-22 -15 -41.5 -31t-28 -24t-12.5 -8q-10 0 -10 26
q0 46 12.5 69.5t55.5 51.5q250 165 657 373z" />
    <glyph glyph-name="question" unicode="?" horiz-adv-x="1021" 
d="M223 -39q-23 0 -48 18t-25 41q0 40 39.5 78.5t64.5 38.5t44 -25t19 -46q0 -33 -37.5 -69t-56.5 -36zM584 1141q-33 -58 -99.5 -144.5t-145 -162.5t-118.5 -76q-15 0 -28 18t-13 45q0 61 101 164t240 198.5t296 165.5t258 70q59 0 110 -22.5t81 -55.5t46.5 -67.5
t16.5 -61.5q0 -64 -57.5 -149.5t-130.5 -149.5q-67 -57 -134.5 -107.5t-109.5 -78.5t-115.5 -75.5t-109.5 -71.5q-241 -163 -303 -287q0 -1 -4.5 -20.5t-11.5 -29.5t-19 -10t-33.5 11.5t-21.5 17.5q0 2 4 14q45 85 120.5 169.5t158.5 152.5t174 136t172.5 131.5t147 126
t104 132t38.5 138.5q0 54 -29 77t-67 23q-88 0 -208.5 -54t-309.5 -167z" />
    <glyph glyph-name="at" unicode="@" horiz-adv-x="1284" 
d="M766 154q-10 -17 -29.5 -41.5t-49.5 -56t-67.5 -53t-70.5 -21.5q-67 0 -101 39t-34 85q0 66 27 133t79 162q62 112 155.5 214t147.5 102t95 -32.5t45 -102.5q19 0 42 -15.5t23 -25.5q0 -3 -0.5 -6.5t-2 -7.5t-3 -7.5t-5.5 -10t-7 -11t-9 -14.5t-10 -17
q-45 -79 -100 -218.5t-55 -193.5q0 -37 28 -37q67 0 160 105.5t162 262.5t69 286q0 122 -71 194t-226 72q-109 0 -222.5 -47.5t-208.5 -127.5t-171 -178.5t-118.5 -208t-42.5 -208.5q0 -210 206 -311q27 -13 27 -33q0 -14 -12 -22.5t-27 -8.5q-23 0 -57 15.5t-71.5 48.5
t-70 76t-54 105t-21.5 130q0 109 44.5 227t125.5 224t183.5 191t228.5 135t251 50q195 0 285 -87t90 -230q0 -110 -47.5 -240t-116.5 -233t-148.5 -172.5t-140.5 -69.5q-53 0 -79.5 44t-26.5 104q0 29 2 43zM842 395q-5 0 -9 4.5t-4 10.5q0 4 36 79t36 117q0 16 -5 23.5
t-19 7.5q-36 0 -100.5 -64t-125 -151.5t-105 -186.5t-44.5 -163q0 -18 12.5 -31.5t30.5 -13.5q42 0 105 62.5t124 162.5q21 35 44.5 85.5t23.5 57.5z" />
    <glyph glyph-name="A" unicode="A" horiz-adv-x="1136" 
d="M967 444q-198 -16 -447 -71q-124 -185 -203 -328l-15 -30t-13.5 -26.5t-11 -18.5t-12.5 -13.5t-13 -3.5q-17 0 -27 20t-10 41q0 44 68 150q94 152 116 184q-349 -74 -354 -74q-29 0 -29 19q0 35 180 81q8 2 11 3q51 15 252 65q38 57 225.5 327.5t292.5 438.5q2 3 15.5 25
t19.5 30.5t19.5 27.5t22.5 28.5t21.5 21t24.5 16.5t24 5q42 0 75.5 -8.5t33.5 -22.5q0 -40 -14 -112q-52 -268 -101 -589t-49 -476q0 -49 1.5 -84t3 -50.5t1.5 -17.5q0 -15 -13 -25t-22 -10q-21 0 -51 14t-33 25q-14 54 -14 119q0 60 25 319zM979 537q47 387 90 610
q-61 -67 -203 -264.5t-284 -413.5q226 44 397 68z" />
    <glyph glyph-name="B" unicode="B" horiz-adv-x="1097" 
d="M866 692q110 -10 193.5 -73t83.5 -154q0 -70 -61 -149.5t-152 -144.5t-186 -115.5t-173 -75.5q-114 -43 -204 -43q-41 0 -100.5 24t-59.5 41q0 16 45 168q24 76 49.5 150.5t57 161t51 141t59.5 157.5t54 139t61.5 157t56.5 145q-90 -18 -200 -44.5t-176.5 -42.5
t-90.5 -16q-22 0 -38.5 8.5t-16.5 24.5q0 4 3 7.5t9 7.5t11.5 7t15 7t15.5 6t15.5 5.5t12.5 4.5q183 63 419.5 113.5t378.5 50.5q64 0 135 -18t134 -49t104 -79.5t41 -103.5q0 -46 -21 -89.5t-53 -78t-81.5 -69t-94.5 -58.5t-105 -50t-100 -40.5t-92 -32.5zM532 616
q-190 -482 -190 -548q0 -33 33 -33q86 0 286 91t295 204q58 67 58 137q0 76 -67 128t-173 52q-97 0 -242 -31zM795 1247q-116 -258 -222 -528q59 10 139.5 29.5t188.5 55.5t196 78.5t150 102t62 121.5q0 38 -11.5 66.5t-35 45.5t-46 27.5t-59 14.5t-59 5t-60.5 1
q-116 0 -243 -19z" />
    <glyph glyph-name="C" unicode="C" horiz-adv-x="897" 
d="M1026 258q-118 -144 -248.5 -237t-259.5 -93q-92 0 -174.5 37t-136 107t-53.5 157q0 134 91.5 332t230 386t282.5 315q160 135 252 135q77 0 154 -63t77 -150q0 -55 -34 -132.5t-78.5 -141t-87 -109t-60.5 -45.5q-19 0 -25 7.5t-6 27.5q0 36 29 97t64.5 117t64.5 120
t29 106q0 33 -17 60.5t-51 27.5q-56 0 -139 -58t-170 -151.5t-175 -215.5t-156.5 -245t-111.5 -244.5t-43 -209.5q0 -61 15.5 -101.5t46.5 -61t66 -28.5t85 -8q84 0 167 37t192 131q62 53 112.5 107t71 79t27.5 25q16 0 16 -23q0 -28 -47 -94z" />
    <glyph glyph-name="D" unicode="D" horiz-adv-x="1130" 
d="M582 1204q-56 -12 -158 -34.5t-151.5 -32t-71.5 -9.5q-82 0 -82 25q0 38 151 72q46 11 148 36.5t141.5 34.5t116.5 25.5t122 23t105 12t115 5.5q138 0 221 -38.5t145 -127.5q62 -83 62 -184q0 -222 -318 -596q-99 -117 -246.5 -227t-314.5 -183.5t-295 -73.5
q-27 0 -66.5 46.5t-39.5 70.5q0 28 29 123t57 168q186 528 330 864zM737 1233q-155 -348 -227 -525t-166 -432q-61 -161 -61 -217q0 -39 49 -39q43 0 120 27t174.5 77.5t209 141t200.5 199.5q119 145 205 308t86 298q0 36 -6 64.5t-19 48.5t-27 35t-36.5 24t-39.5 14
t-45 7.5t-44.5 3t-44.5 0.5q-127 0 -328 -35z" />
    <glyph glyph-name="E" unicode="E" horiz-adv-x="950" 
d="M291 430q-115 -296 -115 -321q0 -16 11 -20.5t36 -4.5q11 0 109 4t224.5 8t205.5 4q127 0 127 -32q0 -12 -15.5 -24t-35.5 -13q-81 -3 -320 -21.5t-330 -34.5q-72 -12 -88 -12q-22 0 -40.5 17t-18.5 38q0 13 5 34.5t14.5 52.5t17.5 54t21.5 61t17.5 50q34 92 90.5 240
t98 258.5t83 225.5t64 193t22.5 111q0 10 10 16.5t27.5 9.5t33.5 4.5t37 2.5t29 2q413 37 676 37q24 0 40.5 -1.5t33 -5.5t25 -13.5t8.5 -24.5q0 -9 -7 -15.5t-23.5 -10t-27.5 -5t-36 -2.5t-31 -2q-393 -37 -586 -67q-21 -4 -32 -7t-19.5 -10.5t-11 -12t-10 -20t-13.5 -26.5
q-85 -152 -264 -602q66 1 210 7.5t189 6.5q67 0 144 -8.5t77 -28.5q0 -47 -112 -47q-58 -1 -173 -10t-141 -10q-81 -4 -237 -25z" />
    <glyph glyph-name="F" unicode="F" horiz-adv-x="886" 
d="M291 408l-80 -228q-8 -21 -18.5 -56.5t-19 -62.5t-20 -54.5t-26 -42.5t-31.5 -15q-55 0 -55 39q0 11 1.5 22t5.5 24t6.5 21.5t8 24t7.5 20.5q204 592 258 738q10 29 34 93.5t40 109.5t34 98t27.5 88.5t9.5 50.5q0 14 22.5 20t69.5 9q270 30 649 30q71 0 110 -1t61 -4.5
t28 -8.5t6 -14q0 -12 -12 -19.5t-34.5 -11t-43.5 -5.5t-51.5 -3.5t-46.5 -3.5q-102 -11 -232.5 -23.5t-201.5 -20t-121 -14.5q-54 -9 -68 -19.5t-35 -53.5q-108 -240 -241 -609q80 12 211 24.5t211 12.5q131 0 173 -7t42 -32q0 -15 -17 -23.5t-34 -8.5q-48 0 -255.5 -25
t-371.5 -59z" />
    <glyph glyph-name="G" unicode="G" horiz-adv-x="1193" 
d="M1096 471q24 -16 30.5 -33t6.5 -43q0 -31 -15 -64t-29 -51.5t-42 -52.5q-58 -58 -108.5 -102.5t-123.5 -98.5t-148.5 -84t-144.5 -30q-85 0 -170.5 41.5t-141.5 112t-56 145.5q0 80 26.5 170.5t77 187.5t102.5 180.5t125 186.5q35 51 99 125t146 156t170.5 139t150.5 57
q48 0 83.5 -18t73.5 -52q84 -75 84 -157q0 -56 -54.5 -155t-118 -174t-89.5 -75q-18 0 -27.5 10t-11.5 20.5t-2 27.5q0 37 31 94.5t68.5 107t68.5 104t31 87.5q0 16 -2.5 28.5t-11.5 29.5t-31 26.5t-56 9.5q-50 0 -147 -76.5t-206.5 -202.5t-210 -271t-166.5 -302t-66 -274
q0 -79 42.5 -143t123.5 -64q76 0 163.5 37t160.5 92t134.5 115t96.5 109.5t35 70.5q0 23 -18.5 31t-55.5 8q-17 0 -111 -8.5t-131 -8.5q-176 0 -176 39q0 24 145 43q5 1 146.5 19t251 28.5t178.5 10.5q21 0 42 -20.5t21 -41.5q0 -9 -8.5 -15.5t-25 -10t-31 -5t-35.5 -3.5
q-10 -1 -14 -1z" />
    <glyph glyph-name="H" unicode="H" horiz-adv-x="1071" 
d="M879 244l77 221q-75 -7 -165.5 -19.5t-211 -31t-171.5 -25.5q-112 -318 -121 -379q-9 -48 -28 -64t-62 -16q-19 0 -25 10.5t-6 34.5q0 33 125 396q-142 -15 -185 -15q-75 0 -75 23q0 26 42.5 40.5t143.5 29.5l107 16q165 473 270 725l12 33t12.5 30t14.5 20.5t26.5 16.5
t40.5 4q43 0 43 -43q0 -30 -24 -84q-25 -54 -109.5 -264.5t-163.5 -417.5q224 34 545 68q127 356 273 711q15 33 42.5 53t59.5 20q29 0 40 -10.5t11 -30.5q0 -37 -67 -174q-105 -226 -213 -503.5t-164.5 -442t-61.5 -188.5q-10 -37 -55 -37q-16 0 -24.5 1.5t-14.5 9t-6 22.5
q0 28 22.5 110.5t45.5 149.5z" />
    <glyph glyph-name="I" unicode="I" horiz-adv-x="690" 
d="M281 18l393 1135q-198 -25 -230 -25q-43 0 -43 19q0 9 9.5 18t28.5 17.5t37 15.5t47 14.5t46.5 12.5t46 11.5t35.5 8.5q99 23 223 37t205 16q76 0 76 -18q0 -50 -227 -86q-14 -3 -28.5 -5t-32 -4t-27.5 -3q-70 -154 -198 -486.5t-234 -650.5q116 21 124 21q34 0 75.5 -10
t41.5 -31q0 -31 -276.5 -85.5t-335.5 -54.5q-45 0 -45 27q0 39 289 106z" />
    <glyph glyph-name="J" unicode="J" horiz-adv-x="876" 
d="M1157 1208q-55 -124 -108.5 -281.5t-115 -355.5t-95.5 -299q-22 -67 -41.5 -116.5t-51 -109t-64.5 -97.5t-79 -64t-98 -26q-65 0 -157.5 34.5t-174.5 98.5q-3 3 -30 23.5t-41.5 33t-35.5 32t-31.5 35t-10.5 27.5q0 10 7 18.5t15 8.5q8 -1 19.5 -12.5t25.5 -29t23 -24.5
q100 -87 173.5 -123t172.5 -36q35 0 67 18t62 56t56.5 85.5t56 120t55 144t58 172.5t61.5 192t69 216t76 231q-169 -31 -205 -31q-92 0 -92 25q0 15 14 26t44 19.5t58.5 14t77.5 14.5t82 16q84 18 199.5 37.5t138.5 19.5q47 0 47 -14q0 -45 -227 -99z" />
    <glyph glyph-name="K" unicode="K" horiz-adv-x="911" 
d="M739 797q-23 -90 -39 -231t-16 -267t20.5 -204.5t61.5 -78.5q13 0 28.5 6.5t31 19t30.5 26t31.5 33t28.5 35t27 36t22.5 31.5t18 27.5t11.5 17.5q40 57 50 64q7 5 14 5q10 0 10 -20q0 -27 -37 -84q-20 -34 -31.5 -52.5t-45 -65.5t-61 -74.5t-66 -51.5t-72.5 -24
q-197 0 -197 417q0 138 19 295q-231 -205 -293 -305q-17 -26 -50 -130t-53 -197q-3 -13 -4.5 -32t-2.5 -27.5t-7.5 -15.5t-20.5 -7q-46 0 -63.5 13t-17.5 42q0 42 69 268q226 690 350 1004q6 16 16.5 23.5t20 8.5t29.5 1q28 0 44.5 -10.5t16.5 -24.5q0 -9 -6.5 -28
t-18 -46.5t-14.5 -36.5q-109 -266 -217 -592q82 91 325 300.5t443 373.5q6 5 25 19t30.5 22.5t27 19.5t25.5 16t15 5q26 0 47 -13t21 -34q0 -5 -3 -10t-11 -12t-12 -10t-15 -11l-10 -8q-212 -160 -525 -426z" />
    <glyph glyph-name="L" unicode="L" horiz-adv-x="696" 
d="M682 25q0 -22 -51 -33q-92 -14 -216.5 -37t-205.5 -38t-103 -15q-15 0 -24 1t-22.5 4t-20 12.5t-6.5 23.5q0 147 340 1089q20 55 46 134q27 78 36.5 99t21.5 21q27 0 66 -20t39 -39q0 -24 -35 -109q-176 -428 -281.5 -720t-105.5 -361q0 -31 37 -31q19 0 198.5 18.5
t218.5 18.5q68 0 68 -18z" />
    <glyph glyph-name="M" unicode="M" horiz-adv-x="1130" 
d="M563 227q38 48 149.5 213.5t275.5 412t245 366.5q5 8 14.5 22t12.5 18.5t10 14t10 12t9 8t10.5 7t11.5 3.5t14 2.5t16 0.5q30 0 53 -21.5t23 -52.5q0 -14 -20 -59q-199 -532 -402 -1201q-3 -16 -19.5 -26t-35.5 -10q-43 0 -43 36q0 30 70 259t156 498t102 323
q-89 -122 -271 -406.5t-311 -515.5q-20 -43 -86 -43q-48 0 -66.5 9.5t-26 40t-7.5 106.5q0 134 15.5 293t39 324t27.5 208q-41 -81 -99.5 -235.5t-93.5 -256t-101.5 -304t-68.5 -207.5q-2 -6 -8.5 -28t-9.5 -30.5t-11 -25t-15.5 -23.5t-19.5 -13.5t-26 -6.5q-15 0 -33 6
t-18 18q0 13 5 34.5t14.5 52.5t13.5 46q94 295 244 716.5t184 463.5q9 10 33 18.5t42 8.5q44 0 80.5 -12.5t36.5 -43.5q0 -4 -13.5 -72t-33 -172.5t-38.5 -221t-32.5 -238.5t-13.5 -205q0 -84 6 -111z" />
    <glyph glyph-name="N" unicode="N" horiz-adv-x="933" 
d="M682 96q271 771 418 1121q35 83 43 92q10 10 22 10q56 0 56 -27q0 -9 -76.5 -208t-179 -491t-152.5 -489q-6 -29 -10 -43.5t-13 -32.5t-22 -30q-47 -47 -123 -47q-23 0 -41.5 26t-31 73.5t-21.5 107.5t-14 135.5t-7 149t-2 155.5q0 282 15 496q-32 -33 -151.5 -390
t-209.5 -694q-3 -15 -21.5 -30t-35.5 -15q-16 0 -29.5 18.5t-13.5 34.5t48 192t140.5 473.5t186.5 553.5q25 64 43.5 77t89.5 13q52 0 82 -23t30 -51q0 -2 -7 -46t-17 -117t-20.5 -161t-17.5 -197.5t-7 -207.5q0 -281 49 -428z" />
    <glyph glyph-name="O" unicode="O" horiz-adv-x="1173" 
d="M561 -74q-59 0 -127.5 24t-122.5 62q-56 39 -88.5 70.5t-47 65t-18 58.5t-3.5 70q0 192 126 456.5t289 455.5q39 46 63 71.5t65.5 62.5t85 55t89.5 18q65 0 207 -44.5t215 -113.5q105 -97 105 -213q0 -77 -31 -188t-85.5 -233t-134 -243t-169.5 -217.5t-200 -156.5
t-218 -60zM510 2q100 0 201.5 54.5t185 143t157 201t124 228t79.5 225.5t29 193q0 58 -20 106t-53.5 79.5t-77.5 53.5t-91 31.5t-96 9.5q-74 0 -145 -61q-140 -121 -264 -310t-197 -386.5t-74 -346.5q0 -37 11 -69q22 -73 86 -112.5t145 -39.5z" />
    <glyph glyph-name="P" unicode="P" horiz-adv-x="1236" 
d="M483 332q-63 -175 -106 -309q-3 -9 -7 -27.5t-7 -28t-9.5 -21.5t-17 -17t-25.5 -5q-22 0 -37.5 13t-15.5 36q0 38 113 363q-11 0 -31 4q-5 1 -19 2.5t-25 3t-22.5 4t-18.5 6.5t-7 9q0 31 31 34l17 -1q18 0 45.5 -0.5t51.5 -0.5q231 658 291 832q-118 -29 -267.5 -71
t-236.5 -66.5t-102 -24.5q-41 0 -41 23q0 39 321 157q164 58 349 100t335 42q76 0 151.5 -17t145.5 -52t114 -98.5t44 -146.5q0 -91 -48.5 -192.5t-141.5 -196.5t-214.5 -173t-281.5 -127t-328 -54zM846 1264q-106 -211 -340 -865q126 8 245.5 45t214.5 93t174.5 128.5
t133 151.5t83 160.5t29.5 157.5q0 44 -17.5 75.5t-42.5 48.5t-63 26.5t-67.5 12t-67.5 2.5q-116 0 -282 -36z" />
    <glyph glyph-name="Q" unicode="Q" horiz-adv-x="1171" 
d="M698 -68q216 -21 299 -96q23 -23 23 -43q0 -13 -11.5 -23t-25.5 -10q-7 0 -37 12t-43 15q-92 29 -180.5 42t-237.5 13q-192 0 -311 -11t-125 -11q-26 0 -43.5 11.5t-17.5 29.5q0 31 180 53q16 2 45 7.5t64.5 10t82.5 7.5q-21 7 -36 22q-80 60 -125 150.5t-45 181.5
q0 139 88.5 339.5t239 396.5t313.5 310q69 52 118 52q56 0 174 -41.5t201 -110.5q62 -53 83.5 -94t21.5 -103q0 -216 -148 -507.5t-346 -479.5q-90 -85 -201 -123zM825 113q184 177 316.5 448.5t132.5 493.5q0 91 -83.5 169.5t-184.5 78.5q-59 0 -138.5 -50t-159.5 -131.5
t-158.5 -190.5t-138.5 -222.5t-97.5 -233t-37.5 -215.5q0 -55 11.5 -104t36.5 -92t69 -68t103 -25q79 0 170 38t159 104z" />
    <glyph glyph-name="R" unicode="R" horiz-adv-x="1091" 
d="M338 371l-76 -213l-28 -84q-26 -84 -39 -105.5t-41 -21.5q-13 0 -31.5 9t-18.5 21q0 17 52 183q64 197 197.5 547.5t189.5 515.5q-30 -7 -121 -28t-128 -29t-97 -16.5t-103 -8.5q-57 0 -57 18q0 16 14 21q226 84 506 144t385 60q132 0 200 -23t144 -93q54 -49 79 -78
t39.5 -66.5t14.5 -87.5q0 -126 -154.5 -266.5t-402.5 -247.5q-31 -74 -54.5 -184.5t-23.5 -173.5q0 -32 3 -56t11.5 -51.5t29 -43t51.5 -15.5q40 0 85 25t83.5 64t66.5 75t49 69q5 9 17.5 29.5t20 32.5t17.5 26.5t17.5 21.5t13.5 7q7 0 11 -9t4 -15q0 -20 -39 -91
q-70 -134 -160.5 -209t-190.5 -75q-101 0 -154.5 82.5t-53.5 230.5q0 5 16 193q-156 -53 -344 -84zM715 1255q-154 -306 -344 -798q183 24 356.5 94t297 160t198.5 193t75 192t-67 138.5t-197 49.5q-141 0 -319 -29z" />
    <glyph glyph-name="S" unicode="S" horiz-adv-x="1146" 
d="M1094 43q0 -44 -72 -85.5t-170.5 -65t-183.5 -23.5q-106 0 -208 23.5t-174.5 58.5t-128.5 73.5t-84 70.5t-28 48q0 17 7.5 38.5t17.5 21.5q4 0 22 -23q82 -108 245.5 -165.5t328.5 -57.5q110 0 181 27t71 75q0 40 -26 82.5t-67.5 80.5t-92 78t-101 81t-92 82.5
t-67.5 90.5t-26 97q0 78 49 175t129 187.5t174 167t193.5 123t177.5 46.5q29 0 71 -18.5t79 -58t37 -85.5q0 -48 -81.5 -163t-176.5 -210.5t-131 -95.5q-12 0 -19.5 12.5t-7.5 24.5q0 33 54 99t118 128.5t118 128.5t54 100t-21.5 53t-52.5 19q-83 0 -200 -72t-216.5 -170
t-170 -202.5t-70.5 -165.5q0 -40 30 -84.5t77.5 -86.5t105.5 -86.5t115.5 -90t105 -90.5t77.5 -95.5t30 -97.5z" />
    <glyph glyph-name="T" unicode="T" horiz-adv-x="641" 
d="M1128 1159l-247 -22q-107 -228 -232 -567.5t-172 -512.5q-28 -99 -43 -124t-53 -25q-16 0 -35.5 9.5t-19.5 23.5q0 9 4.5 24.5t13.5 42t12 37.5q87 272 170 517.5t136 395t57 162.5q-610 -65 -635 -65q-53 0 -53 28q0 13 11.5 23t23.5 12q197 36 599.5 91t440.5 55
q40 0 60 -1t47 -4.5t39 -13.5t12 -26q0 -12 -5 -21t-15 -15t-19.5 -10t-25.5 -6.5t-25 -3.5t-25.5 -2.5t-20.5 -1.5z" />
    <glyph glyph-name="U" unicode="U" horiz-adv-x="868" 
d="M752 219q-35 -52 -77 -100t-96 -94.5t-118 -74.5t-127 -28q-113 0 -179.5 70t-66.5 192q0 63 31 179t78.5 247t91 243t83 207t40.5 97q11 28 16.5 39.5t15.5 20t25 8.5q21 0 61.5 -19.5t40.5 -36.5q0 -3 -39.5 -87t-96 -210.5t-112.5 -264t-95.5 -270.5t-39.5 -208
q0 -117 111 -117q66 0 135.5 38t130.5 101.5t112 138t91 156.5q194 394 293 777q6 29 18.5 38t46.5 9q20 0 37 -16t17 -42q0 -19 -25 -94q-210 -606 -403 -899z" />
    <glyph glyph-name="V" unicode="V" horiz-adv-x="860" 
d="M358 190v-55q21 30 117 167.5t123 176t106 149.5t117 161.5t100 133.5t112.5 145.5t101.5 121.5q43 55 63 70.5t51 15.5q27 0 27 -16q0 -9 -14.5 -27t-49.5 -59t-67 -84q-11 -15 -88.5 -120.5t-118.5 -162t-123.5 -173.5t-140 -204.5t-129 -202.5t-127.5 -217
q-30 -58 -46.5 -76t-43.5 -18q-23 0 -47 6q-45 12 -45 166q0 109 26 472.5t62 567.5q12 77 33 106.5t67 29.5q20 0 36.5 -14.5t16.5 -47.5q0 -9 -13 -65.5t-15 -67.5q-91 -599 -91 -879z" />
    <glyph glyph-name="W" unicode="W" horiz-adv-x="1169" 
d="M770 68q41 47 158.5 247t274.5 461t272 422q52 76 71 76q14 0 26.5 -8t12.5 -19q0 -17 -24 -49q-119 -163 -372 -609.5t-317 -574.5q-36 -82 -84 -84q-7 0 -32.5 3.5t-26.5 3.5q-32 0 -51.5 6.5t-27.5 23t-9.5 29t-1.5 39.5q0 84 25 221t71 338t60 272
q-111 -167 -197 -334t-209 -436q-14 -30 -28.5 -65.5t-18.5 -45t-15.5 -21.5t-24.5 -13.5t-40 -1.5q-35 0 -44 15t-9 54q0 19 10 199q33 502 98 969q3 28 16.5 41.5t47.5 13.5q70 0 70 -51q0 -3 -23 -168t-47.5 -390.5t-28.5 -369.5q32 52 180 311t201 342q13 20 32 51
t27.5 44t21.5 29.5t24.5 22t25.5 5.5q28 0 47 -14q62 -47 62 -66q0 -15 -6 -33q-74 -203 -135.5 -462t-61.5 -424z" />
    <glyph glyph-name="X" unicode="X" horiz-adv-x="825" 
d="M559 524q-80 -87 -150 -166.5t-171 -196.5t-123 -143q-2 -3 -8.5 -11.5t-11.5 -14.5t-12 -14.5t-12.5 -14.5t-12 -12t-12 -9t-9.5 -3q-16 0 -27.5 21.5t-11.5 37.5q0 34 115 162q184 213 436 479q-10 141 -10 377q0 208 10 235q9 24 23 31.5t49 7.5q36 0 50.5 -14.5
t14.5 -44.5q0 -4 -1 -18t-3 -44t-4 -76.5t-3 -132.5t-1 -194q227 238 532 526q11 11 17 11q7 0 28 -21.5t21 -40.5q0 -12 -28 -41.5t-79.5 -75.5t-56.5 -51q-216 -201 -432 -428q3 -97 14 -198.5t25.5 -178.5t28 -139t23 -99t9.5 -40q0 -10 -13.5 -17.5t-27.5 -7.5
q-54 0 -67 41q-82 223 -109 518z" />
    <glyph glyph-name="Y" unicode="Y" horiz-adv-x="911" 
d="M766 375q-108 -155 -158 -213q-132 -154 -227 -154q-44 0 -86.5 13.5t-80.5 41t-61.5 78.5t-23.5 117q0 186 309 901q39 94 60 122t45 28q42 0 52.5 -12.5t10.5 -49.5q0 -6 -38.5 -88t-94 -205t-110.5 -258t-93.5 -270t-38.5 -217q0 -59 26.5 -102.5t70.5 -43.5
q58 0 123 40.5t120 101.5t105.5 133.5t84.5 136.5t52 111q158 413 234 618q3 9 9 27.5t11 32t12 28t16.5 22t20.5 7.5q28 0 64.5 -10.5t36.5 -24.5q0 -10 -10 -32.5t-25.5 -52.5t-20.5 -40q-127 -278 -223.5 -582.5t-187.5 -680.5q-17 -72 -35.5 -130.5t-51 -125.5t-71 -112
t-96.5 -75t-127 -30q-111 0 -206 63t-159 164q-45 67 -45 102q0 23 18 23q11 0 23.5 -16t29.5 -50t19 -37q43 -72 128 -131t157 -59q55 0 102 32.5t84 92.5t64 124t53 148q24 81 65.5 249t63.5 245z" />
    <glyph glyph-name="Z" unicode="Z" horiz-adv-x="1034" 
d="M1006 68q0 -17 -78 -25q-144 -6 -320.5 -32.5t-305 -50t-167.5 -23.5q-30 0 -55 15.5t-25 45.5q0 33 82 115q223 225 433 416.5t343.5 300t237.5 188t150.5 116t46.5 48.5q0 10 -31 10q-49 0 -344.5 -38t-321.5 -38q-49 0 -69.5 3.5t-20.5 17.5q0 7 5 12.5t17 10t19 7
t25 7.5t22 6q226 57 472.5 102t369.5 45q29 0 49.5 -28t20.5 -54q0 -6 -10 -16.5t-30.5 -27t-34 -27t-39.5 -29t-28 -19.5q-238 -184 -410.5 -333t-341 -308t-218.5 -204q-173 -159 -173 -197q0 -18 39 -18q1 0 230 17t352 17q69 0 89 -7t20 -25z" />
    <glyph glyph-name="bracketleft" unicode="[" horiz-adv-x="493" 
d="M840 1358h-185q-12 -39 -72 -217.5t-176 -527.5t-239 -732q210 -4 215 -4q14 0 14 -20q-2 -19 -15 -36.5t-26 -17.5q-40 0 -123 1t-127 1q-43 0 -43 37q0 41 277 877q72 215 156 475q52 162 68.5 203t31.5 41q176 0 272 -6q13 0 13 -21q-2 -19 -14 -36t-27 -17z" />
    <glyph glyph-name="backslash" unicode="\" horiz-adv-x="845" 
d="M739 -283q0 -21 -19.5 -32t-43.5 -11q-13 0 -19 2q-16 3 -170 707q-33 155 -97 559.5t-64 499.5q0 47 36 47q29 0 41.5 -15t16.5 -61q28 -288 71 -566t84.5 -471t79.5 -343t61 -230.5t23 -85.5z" />
    <glyph glyph-name="bracketright" unicode="]" horiz-adv-x="536" 
d="M-18 -117h186q12 41 71.5 217t176 527.5t239.5 732.5q-210 4 -215 4q-14 0 -14 20q2 20 14 37t27 17q41 0 124 -1t126 -1q41 0 41 -37q0 -47 -275 -877q-70 -209 -153 -465q-55 -169 -71.5 -211.5t-31.5 -42.5q-160 0 -272 7q-14 0 -14 20q2 19 15 36t26 17z" />
    <glyph glyph-name="asciicircum" unicode="^" horiz-adv-x="823" 
d="M768 1198q-63 -49 -189.5 -158t-210.5 -177t-102 -68t-18 24q0 32 35 68.5t168 136.5q13 9 95 82t157.5 135t93.5 62q14 0 22.5 -9t16.5 -35.5t15.5 -58t24.5 -93.5t37 -126q4 -13 11.5 -35t10.5 -34.5t3 -22.5q0 -20 -13.5 -41t-31.5 -21q-8 0 -24 51.5t-45 149.5
t-56 170z" />
    <glyph glyph-name="underscore" unicode="_" horiz-adv-x="858" 
d="M807 -29q-169 -6 -784 -6q-9 0 -16 6t-7 15q0 20 12 36.5t31 16.5q190 6 795 6q20 0 20 -22q0 -18 -15 -35t-36 -17z" />
    <glyph glyph-name="grave" unicode="`" horiz-adv-x="704" 
d="M735 776q-12 0 -25.5 23.5t-50.5 90t-84 134.5q-4 6 -4 16q0 13 10.5 23t22.5 10q8 0 17 -8t19 -22.5t18.5 -28t19.5 -33t18 -29.5q70 -108 70 -135q0 -15 -8.5 -28t-22.5 -13z" />
    <glyph glyph-name="a" unicode="a" 
d="M397 135q-12 -18 -29.5 -39.5t-49 -55t-69.5 -55.5t-73 -22q-66 0 -99.5 39t-33.5 86q0 65 26.5 132t77.5 161q61 112 155.5 213.5t148.5 101.5q55 0 96 -31.5t45 -101.5q17 0 40 -16.5t23 -24.5q0 -15 -34 -76q-45 -74 -101.5 -215.5t-56.5 -195.5q0 -35 29 -35
q84 0 213 188q11 15 41.5 64t51.5 77.5t29 28.5q11 0 11 -20q0 -21 -54 -117t-116 -170q-90 -108 -170 -108q-53 0 -79 44t-26 105q0 31 4 43zM471 375q-14 0 -14 16q0 6 17.5 40.5t35.5 79.5t18 77q0 28 -22 28q-49 0 -139.5 -103t-163 -240t-72.5 -220q0 -19 11.5 -32
t31.5 -13q42 0 105.5 62.5t123.5 162.5q14 23 31 57t27 58t10 27z" />
    <glyph glyph-name="b" unicode="b" horiz-adv-x="544" 
d="M309 565q41 47 78.5 63.5t81.5 16.5q60 0 99.5 -38.5t39.5 -100.5q0 -148 -121 -320q-78 -116 -145.5 -172.5t-144.5 -56.5q-55 0 -104.5 42t-49.5 87q0 53 55 207.5t166 424.5t115 281q7 18 11.5 28t16 20t25.5 10q18 0 51 -12t33 -25q0 -7 -33.5 -77.5t-86.5 -183.5
t-87 -194zM176 8q66 0 144.5 94.5t129 209t50.5 180.5q0 42 -16.5 64t-43.5 22q-115 0 -227 -275q-82 -201 -82 -246q0 -49 45 -49z" />
    <glyph glyph-name="c" unicode="c" horiz-adv-x="481" 
d="M659 373q0 -10 -14.5 -42.5t-40 -79t-64 -96.5t-82.5 -93t-101 -71t-113 -28q-87 0 -144 44t-57 126q0 60 31.5 143.5t77.5 155.5q22 34 51.5 74.5t69 87.5t79.5 77.5t68 30.5q46 0 88 -30q51 -41 51 -82q0 -48 -42 -141t-77 -93q-41 0 -41 41q0 27 38 108t38 93
q0 14 -8 14q-40 0 -123.5 -99t-130.5 -189q-23 -47 -35 -73t-23.5 -67.5t-11.5 -77.5q0 -47 28.5 -72.5t70.5 -25.5q76 0 151.5 70t186.5 223q61 88 69 88q10 0 10 -16z" />
    <glyph glyph-name="d" unicode="d" horiz-adv-x="673" 
d="M399 125q-3 -3 -27 -34t-38 -45.5t-39 -38t-49.5 -34t-48.5 -10.5q-59 0 -106.5 38.5t-47.5 92.5q0 102 82 262t168 244q2 1 17 16t24.5 22.5t25.5 19t32 17t32 5.5q33 0 77 -25t72 -51q38 78 121 279q12 30 22 58.5t15 45t9.5 31t7 21.5t7 12t9.5 6.5t14 1.5
q28 0 57 -11.5t29 -27.5q0 -25 -60.5 -159t-133 -286t-133 -306.5t-60.5 -215.5q0 -47 29 -47q54 0 127.5 83.5t132.5 195.5q24 42 35.5 57.5t21.5 15.5q13 0 13 -26q0 -24 -38.5 -95.5t-74.5 -123.5q-112 -160 -199 -160q-63 0 -94 49t-31 123zM350 158q74 107 132.5 224
t58.5 157q0 27 -16 45t-38 18q-65 0 -149 -110.5t-139.5 -240t-55.5 -194.5q0 -17 12.5 -28t30.5 -11q70 0 164 140z" />
    <glyph glyph-name="e" unicode="e" horiz-adv-x="567" 
d="M213 279q-57 -105 -57 -164q0 -97 116 -97q52 0 111 30t114.5 80.5t102.5 105t90 114.5q5 7 14.5 20t15 20t12.5 15.5t13 12.5t11 4t11.5 -7t6.5 -14q0 -8 -23 -53t-68.5 -109.5t-102.5 -125.5t-136.5 -104.5t-158.5 -43.5q-91 0 -158.5 45.5t-67.5 126.5q0 83 63 204.5
t152 229.5q106 136 177 136q67 0 116 -42t49 -77q0 -77 -48 -162t-111.5 -139t-110.5 -54q-62 0 -133 48zM242 332q39 -39 80 -39q50 0 116 72q37 43 69 101t32 107q0 52 -41 52q-43 0 -117 -88t-139 -205z" />
    <glyph glyph-name="f" unicode="f" horiz-adv-x="360" 
d="M330 635l55 8q11 2 44 8.5t59 10.5t40 4q23 0 23 -21q0 -10 -10.5 -19.5t-24.5 -11.5q-119 -16 -211 -36q-116 -291 -186 -543q-6 -23 -11 -35t-17 -23.5t-28 -11.5q-15 0 -30 9t-15 28q0 41 52 203t127 352q-121 -25 -131 -25q-21 0 -21 13q0 21 33.5 36t140.5 35
q160 392 262 531q20 25 29 35.5t31 31.5t43.5 30t44.5 9q60 0 114 -53t54 -82q0 -24 -23 -24q-1 0 -61 28.5t-90 28.5q-33 0 -117 -147t-176 -369z" />
    <glyph glyph-name="g" unicode="g" horiz-adv-x="602" 
d="M440 131q-133 -139 -204 -139q-26 0 -66 12.5t-77.5 44t-37.5 72.5q0 98 73 232.5t169 230.5t160 96q26 0 72 -19.5t83 -46.5q29 49 40.5 62.5t21.5 13.5q20 0 40.5 -14.5t20.5 -34.5q0 -2 -29 -71t-76 -190t-81 -226q-14 -41 -30 -100.5t-26.5 -104.5t-24.5 -103.5
t-17 -72.5q-13 -76 -45 -121q-16 -23 -66 -52.5t-94 -29.5q-47 0 -138.5 40t-164 88t-72.5 71q0 9 8 15.5t17 6.5q4 0 40 -22.5t81.5 -50t102.5 -50t97 -22.5q14 0 25 2t20 4.5t17 9.5t13.5 12.5t12 18t10.5 20.5t10.5 27t10 30.5t11.5 36.5t13 41q14 43 39.5 143.5
t40.5 139.5zM457 250q39 62 78.5 150t39.5 143q0 57 -53 57q-29 0 -75 -32.5t-95 -87t-92.5 -118t-71.5 -134t-28 -126.5q0 -47 41 -47q65 0 140 63t116 132z" />
    <glyph glyph-name="h" unicode="h" horiz-adv-x="608" 
d="M453 535q-173 -184 -318 -478l-12 -24t-12 -22.5t-10.5 -15.5t-12.5 -12t-14 -3q-22 0 -44 12.5t-22 25.5q0 21 56 192.5t149.5 449.5t144.5 440q7 28 50 28q30 0 57 -15.5t27 -33.5q0 -4 -46.5 -112.5t-120.5 -299.5t-126 -364q24 30 68 89.5t77 103t71 89t68 70.5
t49 25t46 -18q6 -3 14 -7.5t11.5 -6t8.5 -4.5t6.5 -5t3.5 -4.5t2.5 -6t0.5 -7.5q0 -5 -16 -38.5t-42 -85.5t-39 -81q-31 -69 -64.5 -169t-33.5 -163q0 -18 5 -25.5t20 -7.5q62 0 147 107q64 79 108.5 148t58 91.5t22.5 22.5q10 0 10 -14q0 -45 -54 -147t-136 -192t-144 -90
q-16 0 -40.5 11.5t-43.5 29.5q-49 42 -49 91q0 138 119 426z" />
    <glyph glyph-name="i" unicode="i" horiz-adv-x="329" 
d="M199 -23q-20 0 -50.5 11t-52.5 26q-53 35 -53 109q0 85 86 274q54 127 79 165t52 38q26 0 44 -16.5t18 -38.5q0 -10 -28 -64t-61.5 -117t-61.5 -140t-28 -128q0 -32 6.5 -46.5t30.5 -14.5q79 0 238 252q4 6 24 38t36 53t24 21q6 0 11 -8t5 -20q0 -13 -12 -42t-21 -42
q-171 -310 -286 -310zM385 778q-30 0 -50 20t-20 52q0 42 41.5 92.5t92.5 50.5q20 0 31.5 -20t11.5 -43q0 -53 -38 -102.5t-69 -49.5z" />
    <glyph glyph-name="j" unicode="j" horiz-adv-x="217" 
d="M-14 -377q-11 -54 -45.5 -90.5t-85.5 -36.5q-65 0 -124 21.5t-95 51t-57 56t-21 39.5q0 8 9.5 12.5t18.5 4.5q17 0 39.5 -16.5t43 -36t53.5 -36t69 -16.5q17 0 26.5 1.5t23 8.5t24 24t20.5 46q69 209 139 422t106 323t54 162q21 52 28.5 64t18.5 12q14 0 37 -11t23 -26
q0 -17 -42.5 -132t-120 -352t-142.5 -495zM387 913q-18 0 -37.5 18.5t-19.5 39.5q0 39 45 95t76 56q16 0 34.5 -15.5t18.5 -35.5q0 -56 -40.5 -107t-76.5 -51z" />
    <glyph glyph-name="k" unicode="k" horiz-adv-x="591" 
d="M186 166l-32 -8q-7 -20 -37 -117q-12 -39 -27 -51.5t-45 -12.5q-37 0 -37 25q0 7 18 65t27 80q34 91 136 359t155 418q7 18 15.5 45.5t15 47.5t14 39.5t14 29.5t13.5 10q96 0 96 -45q0 -22 -34.5 -103.5t-103.5 -237t-118 -274.5q73 96 167 179t157 83q34 0 55.5 -16
t21.5 -49q0 -103 -104.5 -223t-247.5 -195q5 -188 105 -188q56 0 110 38.5t93 94t70.5 111t53 94t29.5 38.5t13 -9.5t5 -20.5q0 -10 -16 -51.5t-48.5 -101t-74 -114.5t-100.5 -94t-119 -39q-84 0 -146 55t-94 138zM176 223q53 8 141.5 75t159 156.5t70.5 151.5q0 17 -12 17
q-20 0 -91 -60t-153 -158.5t-115 -181.5z" />
    <glyph glyph-name="l" unicode="l" horiz-adv-x="382" 
d="M250 408q-68 -197 -68 -273q0 -58 12.5 -82t41.5 -24q35 0 82.5 43t78 85t58.5 87q22 33 49 79.5t40.5 67.5t18.5 21q6 0 12.5 -4.5t6.5 -16.5q0 -18 -31.5 -85t-78 -145t-111.5 -139t-121 -61q-71 0 -110.5 55t-39.5 131q0 142 77.5 353t188.5 420q19 36 29.5 56
t33 59.5t40 63.5t39 50.5t42 39.5t38.5 13q48 0 82 -25.5t34 -78.5q0 -64 -75 -205t-181 -281.5t-188 -203.5zM623 1128q-84 -85 -177 -262t-167 -372q64 61 144 183.5t138.5 251.5t61.5 199z" />
    <glyph glyph-name="m" unicode="m" horiz-adv-x="860" 
d="M385 35h-53q-25 0 -25 22q0 13 34.5 94.5t69.5 187t35 177.5q0 25 -14 25q-41 0 -138.5 -146.5t-129.5 -240.5q-9 -24 -22 -63q-23 -67 -32.5 -84t-27.5 -17h-25q-39 0 -39 33q0 38 101 311q21 57 39 111.5t25 79.5t15 45.5t14.5 26t18.5 5.5q15 0 40.5 -11.5t25.5 -21.5
q0 -4 -7 -25t-21.5 -65t-26.5 -88q8 7 37.5 47t59.5 79.5t69 72.5t69 33q80 0 80 -80q0 -19 -16 -123q37 55 127.5 154.5t128.5 99.5q26 0 54 -26.5t28 -49.5q0 -15 -121 -252q-88 -179 -88 -285q0 -45 22 -45q52 0 98.5 47t139.5 181q10 14 37.5 56.5t45.5 66.5t27 24
q13 0 13 -20q0 -12 -32 -75t-79.5 -139.5t-115 -137t-126.5 -60.5q-56 0 -88 47t-32 109q0 82 55 218t113 236q-55 -14 -156.5 -156.5t-147.5 -277.5q-28 -80 -45 -94q-7 -6 -14 -6z" />
    <glyph glyph-name="n" unicode="n" horiz-adv-x="595" 
d="M231 350q205 299 277 299q48 0 77 -24.5t29 -69.5q0 -20 -30.5 -79t-67.5 -124t-67.5 -148.5t-30.5 -146.5q0 -43 26 -43q39 0 103 64q51 51 103 133.5t82 137t40 54.5q16 0 16 -22t-28 -76q-106 -224 -236 -325q-25 -25 -55 -25q-18 0 -40 8t-46.5 24.5t-40.5 49.5
t-16 76q0 59 38.5 162t77.5 186.5t39 95.5l-6 4q-16 0 -80.5 -71.5t-143 -191.5t-114.5 -224q-2 -7 -6.5 -20.5t-6 -17.5t-4.5 -12.5t-6 -10.5t-7 -6.5t-9.5 -5.5t-12.5 -2t-17 -1q-50 0 -50 39q0 32 37 127q16 46 37.5 111t34.5 103.5t29 86t26 74.5t19.5 52.5t14.5 36.5
t7 11q33 0 67 -13.5t34 -37.5q0 -13 -11.5 -39.5t-36 -82t-45.5 -116.5z" />
    <glyph glyph-name="o" unicode="o" horiz-adv-x="555" 
d="M252 -39q-48 0 -78 6q-65 9 -97 59.5t-32 129.5q0 84 60 211.5t137 232.5q95 131 188 131q17 0 30.5 -8t29.5 -23t24 -20q4 -3 15 -11t14.5 -11t12 -11t12 -14t9 -16.5t7.5 -22t4 -27.5t2 -35q0 -68 -28 -164.5t-73 -187.5t-109 -155t-128 -64zM395 180q51 107 77 187.5
t26 156.5q0 103 -56 103q-46 0 -115 -89.5t-120 -211.5t-51 -207q0 -107 65 -107q31 0 63.5 23.5t56 56.5t36.5 55t18 33z" />
    <glyph glyph-name="p" unicode="p" horiz-adv-x="565" 
d="M115 45q-72 -191 -142 -453q-12 -44 -26.5 -58.5t-46.5 -14.5q-45 0 -45 41q0 20 42 153.5t83 245.5q186 515 232 626q52 124 69 124q33 0 56 -11.5t23 -29.5q0 -14 -30 -74q36 43 84.5 80t89.5 37q65 0 105 -55.5t40 -114.5q0 -84 -56.5 -205.5t-131.5 -226.5
q-39 -56 -102.5 -103t-112.5 -47q-44 0 -78 25t-53 61zM137 109q28 -78 76 -78q63 0 137 94t121 212t47 195q0 35 -13 63t-40 28q-74 0 -176 -185q-84 -156 -152 -329z" />
    <glyph glyph-name="q" unicode="q" horiz-adv-x="620" 
d="M385 57q-38 -40 -97 -67t-93 -27q-59 0 -105.5 46.5t-46.5 82.5q0 60 28 131.5t60 120.5q34 57 74 111t90 106.5t105 84.5t104 32q33 0 70.5 -25t56.5 -53q32 66 43 66q21 0 41.5 -6.5t31.5 -14t11 -10.5q0 -14 -10.5 -36.5t-38.5 -74.5t-65 -126.5t-101.5 -221.5
t-136.5 -330q-66 -155 -66 -233q0 -28 12.5 -42t12.5 -17q0 -13 -19 -13q-42 0 -75 19.5t-33 50.5q0 49 51.5 200.5t95.5 245.5zM418 190q68 93 115 198.5t47 137.5q0 68 -56 68q-59 0 -155 -105.5t-168 -232.5t-72 -190q0 -25 9 -36.5t36 -11.5q59 0 124.5 48.5
t119.5 123.5z" />
    <glyph glyph-name="r" unicode="r" horiz-adv-x="581" 
d="M430 496q-44 -7 -65 -7q-51 0 -91 21q-64 -119 -151 -258q-13 -21 -29 -21q-9 0 -15.5 6.5t-6.5 16.5q0 11 6 20q96 152 162 271q-13 26 -13 55q0 54 31.5 104t63.5 50q15 0 39 -10t24 -21q0 -22 -20.5 -65.5t-20.5 -63.5q0 -21 14.5 -33t38.5 -12q55 0 125 90q6 6 15 6
q17 0 43 -12.5t26 -30.5q0 -4 -59.5 -110.5t-119.5 -236.5t-60 -192q0 -30 24 -30q44 0 106.5 56.5t111 124.5t88 124.5t42.5 56.5q10 0 15.5 -5.5t5.5 -10.5q0 -11 -32.5 -72.5t-80.5 -135.5t-114 -132.5t-123 -58.5q-51 0 -94.5 34.5t-43.5 100.5q0 109 158 381z" />
    <glyph glyph-name="s" unicode="s" horiz-adv-x="425" 
d="M305 547q-28 -42 -92 -149t-90 -148q-13 -19 -29 -19q-8 0 -14 6t-6 15q0 16 10 31q23 35 107.5 176t144.5 233q19 29 45 29q50 0 70 -12t20 -41q0 -17 -13 -48.5t-14 -35.5q-38 -103 -51.5 -173.5t-13.5 -144.5q0 -38 3 -80.5t3 -52.5q0 -60 -42.5 -109t-102.5 -49
q-55 0 -130 42.5t-118 95.5q-4 4 -4 12q0 10 8 10q2 0 10 -4q42 -26 102.5 -47t104.5 -21q19 0 28 22t9 44q0 119 12.5 204t42.5 214z" />
    <glyph glyph-name="t" unicode="t" horiz-adv-x="339" 
d="M500 702h-115q-105 -213 -182.5 -401.5t-77.5 -251.5q0 -14 7 -21.5t14 -8.5t20 -1q90 0 270 277q4 6 11 17t11 17t9.5 14.5t9.5 13t8 9.5t7 7t6 2q12 0 12 -15q0 -8 -8 -32q-34 -77 -85 -157t-117.5 -144t-119.5 -64q-49 0 -93 39t-44 94q0 57 45 173.5t184 428.5
q-52 -2 -86.5 -4.5t-47 -4t-15.5 -1.5q-21 0 -21 19q0 8 9 17.5t20 12.5q19 7 164 19q33 68 51 114q13 30 37 48t51 18q10 0 25.5 -19t15.5 -36q0 -9 -4 -15l-55 -104q31 2 65 2q99 0 99 -25q0 -13 -20.5 -25t-59.5 -12z" />
    <glyph glyph-name="u" unicode="u" horiz-adv-x="655" 
d="M403 279l123 262q25 51 64 51q16 0 44 -14t28 -23q0 -14 -46 -96q-176 -311 -176 -430q0 -39 29 -39q77 0 180 143q43 58 79 116.5t50.5 82.5t22.5 24q14 0 14 -20q0 -25 -31.5 -89t-77.5 -133t-108.5 -122t-114.5 -53q-65 0 -89.5 43t-26.5 127q-4 -5 -23.5 -28
t-26.5 -30.5t-25 -26t-29.5 -25.5t-29.5 -17.5t-35.5 -14.5t-37.5 -4q-44 0 -85.5 32t-41.5 87q0 13 3 30t9.5 38.5t12.5 39.5t17.5 46t18.5 44t22 48t20.5 44t21 44.5t18.5 38.5q26 54 43.5 77t30 27t41.5 4q43 0 43 -39q0 -13 -43 -98q-1 -2 -24.5 -44.5t-35 -64.5
t-34 -67.5t-34.5 -75.5t-22 -64.5t-10 -56.5q0 -21 10 -33t23 -12q52 0 122.5 87.5t116.5 183.5z" />
    <glyph glyph-name="v" unicode="v" horiz-adv-x="524" 
d="M446 375q-2 6 -2 22q0 33 8 77t24 90t44.5 78t63.5 32q22 0 35.5 -13t13.5 -36q0 -28 -46.5 -133.5t-111.5 -224.5t-146 -212.5t-139 -93.5q-57 0 -93 34t-36 93q0 29 6.5 69t14 72t24 88t25 82t30.5 91.5t27 80.5q23 70 45 70q25 0 55.5 -13.5t30.5 -41.5
q0 -13 -11.5 -43t-41.5 -107.5t-59 -163.5q-47 -144 -47 -202q0 -41 18 -41q38 0 100 81t168 265z" />
    <glyph glyph-name="w" unicode="w" horiz-adv-x="802" 
d="M715 371q0 4 -1 12.5t-1 13.5q0 51 14 107t46 100.5t73 44.5q37 0 37 -47q0 -53 -42 -159.5t-102.5 -213.5t-137 -187.5t-136.5 -80.5q-45 0 -75 36.5t-34 108.5q-15 -22 -37.5 -49t-62.5 -58.5t-72 -31.5q-21 0 -55 15q-37 18 -52.5 43.5t-15.5 74.5q0 75 42 199t81 209
q2 3 9 20t14.5 32.5t17 32.5t19.5 27.5t18 10.5q21 0 44.5 -15t23.5 -32q0 -14 -28.5 -77t-63 -135.5t-63 -161t-28.5 -147.5q0 -29 7 -38t24 -9q25 0 49.5 17.5t47.5 52.5t42.5 71t40 89t34 91t32.5 92t27 77q9 23 13.5 33t15.5 18t28 8q18 0 40.5 -9.5t22.5 -27.5
q0 -7 -61 -176q-76 -213 -76 -280q0 -54 29 -54q21 0 45.5 18t51 55t46 67t46 82.5t35 70.5t28.5 60z" />
    <glyph glyph-name="x" unicode="x" horiz-adv-x="641" 
d="M360 231v-36q0 -26 3 -53t11 -57t24.5 -48.5t39.5 -18.5q50 0 103.5 38t96.5 92.5t80 109.5t63.5 93t35.5 38q10 0 10 -14q0 -25 -34 -90t-84 -136.5t-119.5 -126.5t-130.5 -55q-176 0 -211 156q-83 -81 -141.5 -142.5t-75 -79.5t-17.5 -18q-39 0 -39 15q0 5 17 28
l248 264v23q0 50 10.5 148t11.5 120q-67 -120 -137 -229q-13 -21 -29 -21q-9 0 -15.5 6.5t-6.5 16.5q0 11 6 20q114 183 135 222q2 3 17 33.5t27.5 52.5t30.5 50.5t35 44t31 15.5q25 0 48.5 -29t23.5 -40q0 -10 -11.5 -50t-27 -110t-22.5 -144q105 102 264 232q3 2 19.5 15
t25 19.5t25 18t28 17.5t24.5 11t23 5q11 0 22 -4.5t11 -11.5q0 -19 -41 -46q-155 -111 -408 -344z" />
    <glyph glyph-name="y" unicode="y" horiz-adv-x="534" 
d="M276 -174l68 274q-29 -43 -78 -81.5t-88 -38.5q-47 0 -88 37.5t-41 93.5q0 59 33.5 158t81.5 196q5 11 13 28t12.5 26t11 21t11.5 18.5t11.5 13.5t13.5 9.5t15 2.5q13 0 36 -19t23 -28q0 -7 -131 -297q-1 -3 -9.5 -24.5t-12.5 -33.5t-10.5 -32.5t-9.5 -39.5t-3 -36
q0 -35 33 -35q63 0 129.5 75.5t126.5 215.5l115 270q20 47 33.5 58.5t35.5 11.5q14 0 30.5 -12.5t16.5 -22.5q0 -6 -135 -336q-35 -83 -63.5 -177.5t-61 -218.5t-49.5 -184q-20 -60 -87 -101.5t-118 -41.5q-45 0 -96 30.5t-87 70t-60.5 74.5t-24.5 46q0 6 5 12.5t16 6.5
q9 0 27.5 -19.5t43 -47t53 -54.5t64.5 -46.5t70 -19.5q47 0 70.5 43t53.5 154z" />
    <glyph glyph-name="z" unicode="z" horiz-adv-x="710" 
d="M418 123q-179 -125 -260 -125q-36 0 -55 15.5t-19 41.5q0 57 80 96t174 39q30 0 57 -6q130 115 231 256.5t101 227.5q0 29 -10.5 37t-36.5 8q-50 0 -130.5 -43t-154.5 -88t-106 -47q-99 -179 -166 -283q-13 -21 -29 -21q-9 0 -15.5 6.5t-6.5 16.5q0 11 6 20
q106 168 160 267q-33 15 -33 55q0 41 37 80t75 39q37 0 54 -33q25 9 86 38t114 50t82 21q54 0 101 -39q41 -34 55 -59t14 -62q0 -104 -103.5 -232t-252.5 -241q72 -46 72 -146q0 -79 -73.5 -194t-173.5 -214t-209.5 -170t-176.5 -71q-45 0 -96.5 32t-51.5 75
q0 59 109.5 163.5t265 210.5t332.5 207q0 51 -47 72zM453 -10q-153 -95 -291 -197.5t-235 -198.5t-97 -143q0 -20 49 -20q75 3 199.5 101t232.5 229.5t142 228.5zM338 139q-84 0 -143.5 -24t-59.5 -49q0 -6 8.5 -10.5t16.5 -4.5q62 0 178 88z" />
    <glyph glyph-name="braceleft" unicode="{" horiz-adv-x="557" 
d="M428 -193q12 -6 12 -12q0 -20 -32 -20q-113 0 -169.5 50t-56.5 138q0 59 35 152.5t70 188.5t35 159q0 87 -66 131q-2 1 -6 4t-5.5 4t-3.5 2.5t-2.5 3.5t-0.5 4q0 15 24 27q158 61 221 256q13 39 32.5 118t31.5 117q43 134 152 224t249 90q33 0 33 -14q0 -1 -1 -4.5
t-1 -4.5q-6 -11 -29 -14q-120 -18 -191 -92t-118 -219q-5 -15 -14 -45q-15 -50 -23.5 -76.5t-26.5 -74t-33 -76t-39.5 -67t-50 -62.5t-61 -47.5t-76.5 -37.5q97 -63 97 -176q0 -62 -35 -172q-29 -87 -42.5 -129.5t-27.5 -99.5t-14 -88q0 -59 31.5 -89.5t101.5 -48.5z" />
    <glyph glyph-name="bar" unicode="|" horiz-adv-x="591" 
d="M172 -231q-43 0 -43 36q0 55 141 463t207 568q275 663 291 663q27 0 50.5 -14t23.5 -39q0 -5 -36 -78.5t-100.5 -215.5t-140 -324t-168 -449t-170.5 -545q-10 -38 -22 -51.5t-33 -13.5z" />
    <glyph glyph-name="braceright" unicode="}" horiz-adv-x="485" 
d="M-70 -193q83 19 132.5 48t91.5 94t79 180q5 16 17 57t17 57.5t17.5 53t21 54t24.5 49t31 49.5t37 43.5t45.5 43.5t54.5 37.5t67 36.5q-92 41 -92 160q0 69 28.5 170t57.5 191t29 133q0 61 -34 96t-108 47q-18 3 -18 10q0 2 2 4q9 23 47 23q105 0 159 -53.5t54 -143.5
q0 -60 -32 -150.5t-63.5 -179t-31.5 -143.5q0 -96 74 -135q10 -5 10 -14q0 -20 -33 -31q-50 -23 -89.5 -59.5t-63.5 -74.5t-44.5 -91t-31.5 -94.5t-26.5 -100.5t-26.5 -94q-41 -136 -147.5 -220.5t-252.5 -84.5q-24 0 -24 10q0 13 22 22z" />
    <glyph glyph-name="asciitilde" unicode="~" horiz-adv-x="811" 
d="M874 723q-5 -40 -82 -81.5t-151 -41.5q-40 0 -80 19t-73.5 38t-57.5 19q-31 0 -70 -19t-69 -38t-39 -19q-10 0 -10 8q0 19 18 35q117 102 221 102q37 0 108.5 -34.5t115.5 -34.5q26 0 60.5 15t59 29.5t27.5 14.5q22 0 22 -12z" />
    <glyph glyph-name="nbspace" unicode="&#xa0;" horiz-adv-x="430" 
 />
    <glyph glyph-name="exclamdown" unicode="&#xa1;" horiz-adv-x="497" 
d="M539 737q-31 0 -51.5 17.5t-20.5 48.5q0 48 32 74t72 26q31 0 52.5 -15t21.5 -42q0 -50 -32.5 -79.5t-73.5 -29.5zM29 -487q-23 0 -51.5 19t-28.5 34q0 4 14 25.5t49.5 81t83.5 149.5t129.5 261.5t175.5 387.5q6 15 14 34t12 29t9.5 22t10 18t10.5 12t12.5 8t15.5 2
q13 0 28 -10.5t15 -24.5q0 -17 -31 -114.5t-121.5 -319.5t-213.5 -471q-3 -7 -16 -34t-18 -35t-17.5 -27.5t-22.5 -26t-25.5 -13.5t-33.5 -7z" />
    <glyph glyph-name="cent" unicode="&#xa2;" horiz-adv-x="542" 
d="M281 711q-38 12 -65.5 50t-27.5 77q0 96 45.5 202.5t118 184.5t146.5 92q5 11 18.5 48t24.5 56t22 19q7 0 16 -6.5t9 -18.5q0 -13 -31 -98q36 -8 54 -33.5t18 -54.5q0 -51 -33.5 -111.5t-71.5 -60.5q-24 0 -24 16q0 10 33.5 74t33.5 88q0 29 -35 29q-44 0 -106.5 -76.5
t-108 -183t-45.5 -183.5q0 -40 13.5 -52.5t46.5 -12.5q37 0 89 38t91.5 76.5t46.5 38.5q4 0 8 -7t4 -13q0 -12 -32.5 -51.5t-90.5 -81.5t-112 -49q-6 -14 -20 -56.5t-26.5 -69t-23.5 -26.5q-8 0 -16 6.5t-8 18.5q0 36 39 131z" />
    <glyph glyph-name="sterling" unicode="&#xa3;" horiz-adv-x="921" 
d="M825 598l-383 -10q-143 -483 -153 -516q482 10 575 10q19 0 19 -23q0 -18 -15 -34.5t-34 -16.5q-74 -3 -425 -8.5t-380 -5.5q-9 0 -16 6t-7 16q0 20 11.5 36t31.5 16q11 0 49.5 1t65.5 1q16 39 32 84t27.5 79t27.5 90.5t23.5 83t25.5 93t24 86.5q-113 -2 -205 -2
q-23 0 -23 20q0 21 11 37t30 16q22 1 53 1.5t77 1.5t75 2q43 159 90 296q23 67 42 116.5t50.5 110t64.5 98.5t79 64.5t98 26.5q86 0 154.5 -63.5t68.5 -151.5q0 -53 -23 -106t-53.5 -87t-56.5 -55.5t-35 -21.5q-18 0 -27.5 9t-9.5 17q0 22 26 71t52.5 113t26.5 122
q0 73 -78 73q-36 0 -68.5 -19t-62.5 -60t-55.5 -90.5t-54 -126.5t-52.5 -151t-55 -181q314 6 393 6q18 0 18 -23q0 -18 -15 -34.5t-34 -16.5z" />
    <glyph glyph-name="currency" unicode="&#xa4;" horiz-adv-x="714" 
d="M600 913l31 -24q8 7 23 21t24 22t19.5 15t17.5 7q5 0 12.5 -5.5t7.5 -14.5q0 -21 -73 -90q10 -27 10 -72q0 -86 -45.5 -214.5t-112.5 -219.5q6 -13 20 -38t23.5 -44.5t9.5 -30.5q0 -18 -20 -18q-24 0 -72 86q-64 -64 -125 -64q-42 0 -74 7q-53 6 -83 43q-3 -3 -11 -11.5
t-12 -13t-11.5 -12l-12 -12t-11 -10.5t-11 -9.5t-9.5 -7t-8.5 -5t-6.5 -1.5q-4 0 -11 6.5t-7 17.5q0 18 84 107q-12 38 -12 86q0 79 56 201t128 221q-7 13 -26 44t-31.5 54t-12.5 33q0 7 6.5 12.5t16.5 5.5q21 0 82 -106q74 82 147 82q15 0 28 -8t28 -21.5t24 -18.5z
M485 438q99 203 99 326q0 98 -54 98q-44 0 -109 -85t-114 -201t-49 -197q0 -100 64 -100q39 0 79 38.5t60 73t24 47.5z" />
    <glyph glyph-name="yen" unicode="&#xa5;" horiz-adv-x="1173" 
d="M795 248l-310 -8l-90 -199q-12 -27 -29 -44t-32 -17q-16 0 -30.5 13t-14.5 34q0 39 73 211q-71 -1 -148 -2t-120 -2t-45 -1q-10 0 -17 6t-7 15q0 20 12 36.5t31 16.5q256 7 325 8l33 72q12 30 12 70q-147 -4 -282 -4q-23 0 -23 22q0 19 11 35t30 16l264 6q-4 171 -8 263
q-6 150 -6 358q0 95 9.5 121t35.5 26q34 0 51 -24t17 -53q0 -230 8 -465q1 -39 2.5 -89.5t2.5 -78.5t3 -45q16 14 36.5 34t64.5 63.5t89 86.5l283 275q132 130 320 282q57 47 88 47q8 0 14 -5t6 -11q0 -10 -26 -43.5t-56 -61.5q-608 -602 -680 -675q48 1 109 2t92 1.5
t39 0.5q20 0 20 -21q0 -19 -15.5 -36t-35.5 -17q-114 -5 -285 -8q-31 -31 -43 -47q-7 -7 -49 -95q65 1 136.5 2t113.5 2t51 1q19 0 19 -23q0 -18 -15 -34.5t-34 -16.5z" />
    <glyph glyph-name="brokenbar" unicode="&#xa6;" horiz-adv-x="598" 
d="M494 719q-43 0 -43 37q0 5 6.5 23t20.5 51t28.5 67.5t37 88t40.5 95.5q72 173 112.5 266t55.5 121.5t22 28.5q27 0 50.5 -14t23.5 -39q0 -9 -54 -116.5t-129 -268.5t-114 -275q-14 -40 -24.5 -52.5t-32.5 -12.5zM172 -229q-43 0 -43 36q0 37 94 324q133 395 148 395
q27 0 45 -12.5t18 -38.5q0 -9 -23 -72t-76 -221t-108 -346q-10 -38 -22 -51.5t-33 -13.5z" />
    <glyph glyph-name="section" unicode="&#xa7;" horiz-adv-x="956" 
d="M578 279q108 -108 108 -203q0 -40 -55 -78.5t-138 -61t-163 -22.5q-71 0 -151.5 20t-141.5 49t-102 60.5t-41 54.5q0 19 6.5 39.5t17.5 20.5q5 0 23 -23q60 -73 168.5 -111t224.5 -38q83 0 138.5 32t55.5 76q0 37 -25 76t-62 72.5t-80.5 73t-80.5 75.5t-62 82.5t-25 93.5
q0 102 69 185t178 141q-34 52 -34 117q0 88 57.5 168t139.5 130t166 79.5t144 29.5q28 0 71 -19t80.5 -58.5t37.5 -84.5q0 -33 -44 -108t-101 -139t-89 -64q-14 0 -21 12t-7 25q0 27 29.5 69.5t65.5 79t65.5 79t29.5 69.5q0 34 -22.5 53t-53.5 19q-51 0 -125 -29
t-142.5 -73.5t-117.5 -104t-49 -113.5q0 -43 39 -92t94.5 -96t111.5 -96.5t95 -109.5t39 -118q0 -100 -98 -167t-223 -72zM494 356q34 -6 71 -6q80 0 129 36t49 112q0 48 -26.5 96t-55 76.5t-85 77.5t-78.5 71q-83 -50 -137 -110.5t-54 -118.5q0 -34 26.5 -73.5t56.5 -68.5
t84 -75q13 -11 20 -17z" />
    <glyph glyph-name="dieresis" unicode="&#xa8;" horiz-adv-x="522" 
d="M735 797q-23 0 -41 19t-18 42q0 47 34.5 83t80.5 36q49 0 49 -70q0 -39 -24.5 -74.5t-80.5 -35.5zM485 786q-35 0 -56 16t-21 42q0 32 31.5 75.5t72.5 43.5q33 0 48 -20t15 -50q0 -40 -29 -73.5t-61 -33.5z" />
    <glyph glyph-name="copyright" unicode="&#xa9;" horiz-adv-x="1224" 
d="M928 391q-63 -79 -138.5 -131.5t-148.5 -52.5q-85 0 -149 49.5t-64 126.5q0 58 34 143.5t89.5 171.5t118.5 162t129 124t114 48q44 0 91 -38t47 -91q0 -50 -41 -104t-68 -54q-19 0 -24 6t-5 25t26 72t26 82q0 33 -23 33q-45 0 -117.5 -66.5t-139 -158t-115 -196.5
t-48.5 -175q0 -57 27 -78t76 -21q84 0 188 88q38 33 66.5 64t39 43t17.5 12q9 0 15.5 -9.5t6.5 -14.5q0 -25 -30 -60zM629 -29q-10 -2 -29 -2q-107 0 -213 54q-42 22 -72.5 42t-49.5 42t-29.5 38.5t-15.5 43t-6 44t-1 52.5q0 167 91 386t218 386q33 45 55.5 71t60 61.5
t79 53t86.5 17.5q59 0 124.5 -10t136 -34.5t126 -59t91.5 -89.5t36 -121q0 -72 -23.5 -169t-65 -203t-104.5 -209.5t-137 -188t-167.5 -140.5t-190.5 -65zM549 29q93 0 182 47t159.5 124t131 174.5t100 200.5t62 200.5t22.5 174.5q0 131 -83.5 194.5t-211.5 63.5
q-61 0 -101 -14.5t-77 -50.5q-171 -168 -288 -429t-117 -462q0 -76 16 -111q27 -55 82 -83.5t123 -28.5z" />
    <glyph glyph-name="ordfeminine" unicode="&#xaa;" horiz-adv-x="634" 
d="M674 580q-2 -1 -16 -11l-17.5 -12.5t-15.5 -9.5t-18.5 -9.5t-16.5 -5t-19 -2.5q-41 0 -62.5 36t-21.5 83q0 25 2 33q-9 -14 -24 -32.5t-39 -43.5t-54 -42t-57 -17q-53 0 -79.5 30t-26.5 68q0 53 21 108.5t61 129.5q49 89 125.5 171.5t118.5 82.5q44 0 76 -26t36 -83
q14 0 32.5 -13.5t18.5 -21.5q0 -6 -26 -57q-37 -61 -82 -174.5t-45 -159.5q0 -27 22 -27q24 0 61 26t38 26q9 0 14.5 -7.5t5.5 -17.5t-12 -22zM551 877q-12 0 -12 14q0 3 29.5 63.5t29.5 94.5q0 13 -3.5 17.5t-14.5 4.5q-40 0 -112.5 -83t-130.5 -193t-58 -177q0 -14 9 -25
t23 -11q35 0 86 50.5t99 129.5q12 19 25.5 46.5t21.5 47t8 21.5zM516 356q-322 -14 -364 -14q-19 0 -19 23q0 21 9.5 37t25.5 16q359 14 373 14q16 0 16 -22q0 -19 -12.5 -36.5t-28.5 -17.5z" />
    <glyph glyph-name="guillemotleft" unicode="&#xab;" horiz-adv-x="741" 
d="M174 381q52 -58 90 -90.5t84 -61.5q31 -19 31 -30q0 -20 -13.5 -32.5t-29.5 -12.5q-17 0 -100 69.5t-134 124.5q-10 13 -10 31q0 17 10 26.5t31 20.5q190 109 352 227q12 9 22.5 19t15 14t7.5 4q13 0 13 -22q0 -28 -10.5 -44t-36.5 -34q-146 -108 -322 -209zM451 362
q53 -59 90 -90.5t84 -60.5q30 -19 30 -33q0 -20 -13 -31.5t-30 -11.5t-100 69.5t-133 125.5q-10 8 -10 30q0 25 39 48q181 101 352 227q13 8 24 18t16 14.5t7 4.5q12 0 12 -25q0 -27 -10 -42t-37 -36q-125 -93 -321 -207z" />
    <glyph glyph-name="logicalnot" unicode="&#xac;" horiz-adv-x="1097" 
d="M958 637q-87 -3 -285.5 -6t-348.5 -4.5t-166 -1.5q-23 0 -23 20q0 21 11 37t30 16q126 4 475.5 9.5t399.5 5.5q18 0 18 -23q0 -5 -149 -399q-14 -39 -25 -52.5t-31 -13.5q-43 0 -43 37q0 -1 4.5 11t12 34.5t18 51t23 64t25.5 71t27.5 73.5t26.5 70z" />
    <glyph glyph-name="uni00AD" unicode="&#xad;" horiz-adv-x="559" 
d="M565 371q-49 -1 -148.5 -4t-178.5 -6t-86 -3q-23 0 -23 21t11.5 37t31.5 16q74 2 179 6t166.5 6t80.5 2q18 0 18 -22q0 -18 -15 -35.5t-36 -17.5z" />
    <glyph glyph-name="registered" unicode="&#xae;" horiz-adv-x="624" 
d="M473 1249q23 30 38 46.5t41 40t54 35t58 11.5q50 0 106 -11.5t111.5 -34t91 -64.5t35.5 -96q0 -59 -19.5 -138t-60 -164.5t-94 -159.5t-129 -128t-158.5 -66q-8 -2 -23 -2q-74 0 -143 37q-34 17 -56 34t-34 30.5t-17.5 33.5t-6.5 33t-1 41q0 114 61.5 261t145.5 261z
M709 666h-9q-44 0 -74 38t-30 97q0 21 4 57q-63 -23 -96 -27q-16 -48 -33 -106q-3 -8 -6.5 -19.5t-5 -15t-4.5 -9.5t-5.5 -7t-7 -2.5t-10.5 -1.5q-8 0 -18.5 6.5t-10.5 13.5q0 25 17 74q62 194 74 227q7 18 51 158q-2 0 -7.5 -1t-7.5 -1l-49 -12q-64 -106 -101.5 -217
t-37.5 -199q0 -51 10 -76q18 -37 57.5 -56.5t84.5 -19.5q113 0 215 99zM752 711q83 97 133.5 231.5t50.5 235.5q0 64 -62 113.5t-139 49.5q-48 0 -73 -6t-48 -30q-16 -16 -79 -93q127 31 170 31q51 0 75 -8t54 -37q28 -33 36.5 -50t8.5 -50q0 -50 -52.5 -104.5t-138.5 -98.5
q-26 -91 -26 -133q0 -26 17.5 -40.5t45.5 -14.5q17 0 27 4zM633 1169q-41 -93 -109 -274q118 23 204.5 92t86.5 133q0 62 -78 62q-28 0 -104 -13z" />
    <glyph glyph-name="macron" unicode="&#xaf;" horiz-adv-x="559" 
d="M688 797q-49 -1 -149 -4t-179.5 -6t-85.5 -3q-22 0 -22 21t11 37t30 16q76 2 180.5 6t166 6t79.5 2q20 0 20 -22q0 -18 -15 -35.5t-36 -17.5z" />
    <glyph glyph-name="degree" unicode="&#xb0;" horiz-adv-x="311" 
d="M332 831q-20 0 -45 5q-76 8 -76 110q0 52 35 127.5t80 134.5q56 78 110 78q10 0 19 -5t17 -13t13 -11q16 -12 24 -20.5t14.5 -25.5t6.5 -42q0 -55 -26.5 -133t-74.5 -141.5t-97 -63.5zM416 961q61 122 61 202q0 62 -33 62q-27 0 -67.5 -53t-71.5 -125t-31 -121
q0 -62 39 -62q19 0 38 13t33.5 33.5t20.5 31t11 19.5z" />
    <glyph glyph-name="plusminus" unicode="&#xb1;" horiz-adv-x="710" 
d="M641 565l-215 -6q-62 -214 -72 -233q-3 -17 -18 -17q-47 0 -47 35q0 25 55 213q-43 -1 -99 -2t-84.5 -1.5t-31.5 -0.5q-25 0 -25 20t12 37t31 17l222 6l69 237q4 13 15 13q31 0 41 -8.5t10 -28.5q0 -13 -58 -211q166 6 226 6q18 0 18 -23q0 -18 -15 -35.5t-34 -17.5z
M565 158q-424 -15 -510 -15q-24 0 -24 23q0 19 12 35t31 16q443 14 524 14q18 0 18 -20t-15 -36.5t-36 -16.5z" />
    <glyph glyph-name="twosuperior" unicode="&#xb2;" horiz-adv-x="491" 
d="M688 977q-244 -187 -295 -238q231 19 258 19q29 0 29 -21q0 -14 -14.5 -20.5t-44.5 -11.5q-16 -3 -69 -14t-83 -15q-125 -27 -150 -27q-14 0 -25 16.5t-11 32.5q0 26 176 174q8 7 38 31.5t47.5 39.5t50 43t54 49t49.5 49t46 51t35 47.5t25.5 46.5t8.5 41q0 26 -22 26
q-40 0 -107 -49t-123 -121q-23 -30 -35 -45t-34 -40t-38 -36.5t-28 -11.5q-16 0 -26.5 6.5t-10.5 18.5q0 18 52 79.5t132.5 132t143.5 101.5q27 15 63 15q45 0 77 -30.5t32 -64.5q0 -50 -35 -105t-65 -82.5t-88 -75.5q-9 -8 -13 -11z" />
    <glyph glyph-name="threesuperior" unicode="&#xb3;" horiz-adv-x="548" 
d="M715 1040q43 -9 77.5 -40t34.5 -64q0 -54 -61.5 -120t-149 -111.5t-155.5 -45.5q-85 0 -147 35t-62 76q0 22 16.5 34.5t32.5 12.5q4 0 7 -1t6 -2.5t6 -5t4.5 -5.5t4 -7t4 -7t4 -7.5t3.5 -7.5q11 -30 18 -37q14 -12 68 -12q69 0 149 36.5t133.5 89.5t53.5 97q0 17 -17 28
t-40 11q-63 0 -119 -37q-6 -6 -19 -6q-35 0 -35 27q0 18 25 43q248 164 248 258q0 8 -8 17t-25 9q-43 0 -99 -38t-91 -113l-8 -12q-7 -12 -14 -22.5t-19 -26t-23 -26t-24 -18.5t-25 -8q-8 0 -18.5 7t-10.5 18q0 20 31.5 67.5t76.5 97t100.5 87t96.5 37.5q44 0 83.5 -24.5
t39.5 -70.5q0 -56 -41 -106.5t-112 -106.5z" />
    <glyph glyph-name="acute" unicode="&#xb4;" horiz-adv-x="704" 
d="M897 977q-60 -41 -125.5 -95t-101 -84t-43.5 -30q-10 0 -17.5 9t-7.5 20q0 23 34 57t122 98q8 6 39.5 31t51.5 38t30 13q13 0 22.5 -9t9.5 -21q0 -16 -14 -27z" />
    <glyph glyph-name="mu" unicode="&#xb5;" horiz-adv-x="653" 
d="M401 279l123 262q25 51 64 51q15 0 43 -14t28 -23q0 -16 -45 -96q-176 -311 -176 -430q0 -39 29 -39q77 0 180 143q43 58 79 116.5t50.5 82.5t22.5 24q14 0 14 -20q0 -25 -31.5 -89t-77.5 -133t-108.5 -122t-114.5 -53q-65 0 -89.5 43t-26.5 127q-4 -5 -23.5 -28
t-26.5 -30.5t-25 -26t-29.5 -25.5t-29.5 -17.5t-35.5 -14.5t-37.5 -4q-44 0 -62 47q-91 -252 -129 -418q-12 -45 -26 -59t-47 -14q-46 0 -46 41q0 20 42 153.5t83 245.5q2 6 22 60t24.5 65.5t22 58.5t25 65.5t23.5 58.5t27 65.5t26.5 59t30.5 63.5q26 54 43.5 77t30 27
t41.5 4q43 0 43 -39q0 -13 -43 -98q-2 -4 -38.5 -72t-57.5 -109.5t-42.5 -100t-21.5 -91.5q0 -21 10 -33t23 -12q52 0 122.5 87.5t116.5 183.5z" />
    <glyph glyph-name="paragraph" unicode="&#xb6;" horiz-adv-x="1036" 
d="M997 571l-53 -51q-109 -250 -180 -491q-10 -39 -22 -52.5t-33 -13.5q-43 0 -43 37q0 16 51.5 160t101.5 266q-94 -58 -174 -76q-80 -241 -137 -440q-12 -39 -23.5 -52.5t-33.5 -13.5q-43 0 -43 37q0 74 137 457q-124 3 -216.5 63t-92.5 150q0 57 42 147.5t115.5 187
t162 181.5t193 140t197.5 55q88 0 144.5 -43t56.5 -109q47 -11 47 -49q0 -6 -26 -58.5t-78.5 -161.5t-98.5 -212q30 26 35 26t8.5 -5.5t3.5 -8.5q0 -29 -41 -70zM526 387h37q56 157 78 205q184 447 250 588q-82 -36 -178.5 -112.5t-178.5 -168t-137 -194t-55 -181.5
q0 -42 13.5 -70.5t40 -42.5t57 -19t73.5 -5zM854 512q48 119 176 420q-17 -14 -33 -14q-26 0 -26 26q0 20 43 89.5t43 111.5q0 20 -13 38t-38 21q0 -5 -46 -99t-131.5 -290t-160.5 -405q78 27 174 94q8 4 12 8z" />
    <glyph glyph-name="periodcentered" unicode="&#xb7;" horiz-adv-x="417" 
d="M330 563q0 -30 -40 -68t-77 -38q-32 0 -52 15t-20 46q0 33 38.5 76t74.5 43q32 0 54 -28t22 -46z" />
    <glyph glyph-name="cedilla" unicode="&#xb8;" horiz-adv-x="524" 
d="M473 -35h70q-36 -63 -76 -100q20 10 49 10q57 0 57 -51q0 -81 -80 -154t-190 -73q-24 0 -39.5 6t-15.5 14q0 12 12 12q3 0 17.5 -1t31.5 -1q48 0 121.5 67t73.5 126q0 22 -29 22q-23 0 -66.5 -32.5t-62.5 -32.5l-2 2q0 2 4 6q57 55 125 180z" />
    <glyph glyph-name="onesuperior" unicode="&#xb9;" horiz-adv-x="215" 
d="M336 659q-15 0 -27 7.5t-12 23.5q0 31 98 307l47 138q0 2 -8 10q-16 11 -16 26q0 14 53.5 90t63.5 76q6 0 27.5 -15t21.5 -24q0 -1 -1.5 -4.5t-4 -11l-5.5 -16.5q-84 -201 -186 -533q-1 -3 -4 -13t-4 -13t-3.5 -11t-4 -11t-4.5 -8.5t-6 -7.5t-6.5 -5t-8.5 -4t-10 -1z" />
    <glyph glyph-name="ordmasculine" unicode="&#xba;" horiz-adv-x="600" 
d="M375 532q-22 0 -62 5q-100 14 -100 149q0 67 47 168.5t107 179.5q78 105 147 105q13 0 24 -6t25 -19.5t17 -15.5t15.5 -11t15.5 -12t11.5 -13t10.5 -19t5 -24.5t3 -35.5q0 -74 -36 -178.5t-100 -188.5t-130 -84zM485 705q82 167 82 270q0 82 -43 82q-37 0 -91 -70.5
t-94 -166.5t-40 -163q0 -84 51 -84q32 0 65.5 32t50.5 61.5t19 38.5zM485 356q-315 -14 -333 -14q-19 0 -19 23q0 21 9.5 37t25.5 16q60 2 144.5 6t134.5 6t65 2q14 0 14 -22q0 -19 -11.5 -36.5t-29.5 -17.5z" />
    <glyph glyph-name="guillemotright" unicode="&#xbb;" horiz-adv-x="757" 
d="M498 463q-84 96 -172 151q-33 21 -33 31q0 21 13.5 33t29.5 12q19 0 102 -69.5t131 -124.5q13 -13 13 -31q0 -26 -41 -47q-189 -108 -353 -228q-12 -8 -23 -17.5t-16 -14t-8 -4.5q-10 0 -10 22q0 28 9.5 44t35.5 34q130 97 322 209zM770 444q-50 57 -87.5 90t-84.5 62
q-33 16 -33 31q0 20 14 32.5t29 12.5q19 0 102.5 -70t131.5 -125q12 -12 12 -31q0 -29 -41 -47q-177 -101 -352 -227q-11 -9 -23 -19t-16.5 -14t-7.5 -4q-11 0 -11 23q0 28 10 44t36 34q120 87 321 208z" />
    <glyph glyph-name="onequarter" unicode="&#xbc;" horiz-adv-x="1032" 
d="M-74 -66q-28 2 -28 70q0 28 42.5 88.5t131.5 147.5q156 151 336 329.5t292 290.5t216.5 213.5t162.5 149t78 47.5q37 0 37 -27q0 -7 -13 -21.5t-35 -34t-30 -28.5q-146 -155 -308 -315.5t-273 -265.5t-241.5 -239t-238.5 -259q-22 -25 -41.5 -48t-30.5 -37t-21 -26
t-14.5 -18t-9 -10t-7 -5.5t-5.5 -1.5zM836 203h-33q-5 -14 -27 -73t-35 -101q-10 -28 -19.5 -38.5t-31.5 -10.5q-9 0 -17.5 10t-8.5 22q0 19 14 66q5 20 20 62t21 61q-84 -3 -211 -17l-39 -2q-24 0 -35.5 7t-11.5 28q0 10 9.5 25.5t27 34t31.5 32t35 33t26 23.5
q182 145 313 237q6 4 17 12.5t16 12t12.5 8.5t13 6.5t11.5 1.5q8 0 31.5 -13.5t23.5 -21.5q-2 -6 -6 -16q-22 -33 -53 -103q-64 -125 -103 -225q12 0 60 -6q45 -6 45 -27q0 -28 -96 -28zM289 944l45 135q0 1 -1 2.5t-2.5 4t-2.5 4.5q-1 1 -5 4.5t-6 5.5t-4 6.5t-2 9.5
q0 15 52.5 90.5t64.5 75.5q7 0 28 -14t21 -25q0 -1 -10 -31q-92 -228 -186 -532q-8 -28 -12 -39.5t-14.5 -24t-25.5 -12.5t-27 8t-12 25q0 28 99 307zM743 266l43 107q39 93 52 133q-76 -44 -163 -113t-147 -137q105 7 215 10z" />
    <glyph glyph-name="onehalf" unicode="&#xbd;" horiz-adv-x="1091" 
d="M256 627q-15 0 -27 7t-12 23q0 32 98 308l47 137q0 4 -8 8q-16 16 -16 29q0 14 53.5 89t63.5 75q7 0 28 -14t21 -25q-4 -11 -10 -31q-80 -190 -187 -533q-1 -3 -3.5 -11.5t-3.5 -12l-3 -10.5t-3.5 -9.5t-4 -8t-4.5 -7.5l-5.5 -5.5t-7 -5t-7.5 -2.5t-9 -1zM-74 -66
q-28 2 -28 70q0 28 42.5 88.5t131.5 147.5q156 151 336 329.5t292 290.5t216.5 213.5t162.5 149t78 47.5q37 0 37 -27q0 -7 -13 -21.5t-35 -34t-30 -28.5q-146 -155 -308 -315.5t-273 -265.5t-241.5 -239t-238.5 -259q-22 -25 -41.5 -48t-30.5 -37t-21 -26t-14.5 -18t-9 -10
t-7 -5.5t-5.5 -1.5zM852 299q-244 -187 -295 -238q252 21 258 21q9 0 18 -5.5t9 -17.5q0 -14 -14 -20.5t-44 -11.5q-22 -3 -75 -14t-76 -15q-116 -25 -150 -25q-14 0 -25.5 15.5t-11.5 31.5q0 27 161 162q11 9 16 13q6 6 71 61t99 86.5t84.5 83.5t75 93.5t24.5 74.5
q0 10 -7 17t-18 7q-39 0 -106 -48.5t-123 -120.5q-5 -7 -18 -23t-20.5 -25.5t-20 -24.5t-21.5 -23.5t-19 -17.5t-18.5 -13.5t-15.5 -4.5q-37 0 -37 23q0 30 116.5 148t209.5 165q34 17 65 17q45 0 77 -31t32 -66q0 -19 -3.5 -37t-13 -36.5t-17.5 -33t-24.5 -33t-25.5 -29.5
t-30 -30t-29 -26t-31 -26t-27 -23z" />
    <glyph glyph-name="threequarters" unicode="&#xbe;" horiz-adv-x="1241" 
d="M135 -66q-17 1 -24 23.5t-7 46.5q0 64 177 236q154 150 335 329.5t292 290.5t216.5 213.5t163.5 149.5t78 47q37 0 37 -27q0 -7 -14 -21.5t-35 -33.5t-29 -29q-180 -191 -388 -392.5t-373 -365t-302 -321.5q-22 -25 -40.5 -48t-30 -37t-21 -26t-14 -18t-9 -10t-7 -5.5
t-5.5 -1.5zM1042 203h-30q-39 -101 -62 -174q-10 -28 -19.5 -38.5t-31.5 -10.5q-10 0 -18.5 10t-8.5 22q0 23 13 66q2 6 18 51t23 72q-82 -3 -209 -17l-39 -2q-25 0 -36 6.5t-11 28.5q0 10 9 25t27 34.5t30 31.5t35 33.5t26 23.5q213 167 313 237q7 5 18 13l16.5 12t13 8
t13 6t11.5 2t29.5 -13.5t23.5 -21.5q-2 -6 -6 -16q-47 -94 -51 -103q-62 -120 -105 -225q8 0 62 -6q45 -6 45 -27q0 -28 -99 -28zM582 1008q44 -11 78 -41.5t34 -63.5q0 -53 -61.5 -119t-148 -111.5t-154.5 -45.5q-86 0 -147.5 34t-61.5 76q0 22 16 34.5t33 12.5
q4 0 7.5 -1.5t6.5 -4.5l5.5 -5.5t5.5 -7.5t5 -7.5t5 -8.5l4 -8q7 -27 16 -36q18 -13 68 -13q70 0 150.5 36.5t134 89t53.5 95.5q0 18 -17.5 28.5t-42.5 10.5q-65 0 -118 -37q-6 -4 -17 -4q-35 0 -35 27q0 20 23 43q250 166 250 258q0 8 -8 16.5t-25 8.5q-44 0 -101 -38
t-91 -114q-67 -111 -113 -111q-7 0 -18 7.5t-11 17.5q0 20 31.5 67.5t76.5 97t100.5 87t96.5 37.5q45 0 84 -24t39 -70q0 -56 -41 -106.5t-112 -106.5zM952 266l41 107q37 82 54 133q-75 -43 -162 -112t-148 -138q106 7 215 10z" />
    <glyph glyph-name="questiondown" unicode="&#xbf;" horiz-adv-x="1099" 
d="M973 743q-24 0 -43 26.5t-19 45.5q0 34 37.5 69.5t55.5 35.5q23 0 48 -18.5t25 -41.5q0 -40 -39.5 -78.5t-64.5 -38.5zM643 -258q36 59 101 143.5t143.5 161t118.5 76.5q16 0 28.5 -18t12.5 -46q0 -48 -65 -125.5t-169.5 -157.5t-222.5 -152t-237.5 -117.5t-200.5 -45.5
q-59 0 -109.5 22.5t-80 56t-46 67.5t-16.5 61q0 65 58 151.5t130 147.5q67 58 134.5 109t109.5 79t115.5 75t109.5 71q67 47 115 84t104 94t82 109q2 4 6.5 21t11 27.5t17.5 10.5q13 0 35 -11.5t22 -17.5q0 -2 -4 -14q-45 -85 -121 -169.5t-159.5 -152.5t-174.5 -136
t-172.5 -130.5t-147 -125t-104 -131.5t-38.5 -138q0 -55 29.5 -78.5t68.5 -23.5q88 0 207.5 54t308.5 169z" />
    <glyph glyph-name="Agrave" unicode="&#xc0;" horiz-adv-x="1136" 
d="M967 444q-198 -16 -447 -71q-124 -185 -203 -328l-15 -30t-13.5 -26.5t-11 -18.5t-12.5 -13.5t-13 -3.5q-17 0 -27 20t-10 41q0 44 68 150q94 152 116 184q-349 -74 -354 -74q-29 0 -29 19q0 35 180 81q8 2 11 3q51 15 252 65q38 57 225.5 327.5t292.5 438.5q2 3 15.5 25
t19.5 30.5t19.5 27.5t22.5 28.5t21.5 21t24.5 16.5t24 5q42 0 75.5 -8.5t33.5 -22.5q0 -40 -14 -112q-52 -268 -101 -589t-49 -476q0 -49 1.5 -84t3 -50.5t1.5 -17.5q0 -15 -13 -25t-22 -10q-21 0 -51 14t-33 25q-14 54 -14 119q0 60 25 319zM979 537q47 387 90 610
q-61 -67 -203 -264.5t-284 -413.5q226 44 397 68zM1153 1442q-12 0 -25.5 23.5t-50.5 90t-84 134.5q-2 4 -2 16q0 14 9.5 23.5t23.5 9.5q7 0 16 -8t18.5 -22.5t18 -28.5t20 -34t17.5 -30q72 -109 72 -133q0 -15 -9.5 -28t-23.5 -13z" />
    <glyph glyph-name="Aacute" unicode="&#xc1;" horiz-adv-x="1136" 
d="M967 444q-198 -16 -447 -71q-124 -185 -203 -328l-15 -30t-13.5 -26.5t-11 -18.5t-12.5 -13.5t-13 -3.5q-17 0 -27 20t-10 41q0 44 68 150q94 152 116 184q-349 -74 -354 -74q-29 0 -29 19q0 35 180 81q8 2 11 3q51 15 252 65q38 57 225.5 327.5t292.5 438.5q2 3 15.5 25
t19.5 30.5t19.5 27.5t22.5 28.5t21.5 21t24.5 16.5t24 5q42 0 75.5 -8.5t33.5 -22.5q0 -40 -14 -112q-52 -268 -101 -589t-49 -476q0 -49 1.5 -84t3 -50.5t1.5 -17.5q0 -15 -13 -25t-22 -10q-21 0 -51 14t-33 25q-14 54 -14 119q0 60 25 319zM979 537q47 387 90 610
q-61 -67 -203 -264.5t-284 -413.5q226 44 397 68zM1333 1673q-61 -41 -126.5 -95t-100.5 -84t-43 -30q-10 0 -18.5 9t-8.5 20q0 24 34.5 58.5t123.5 99.5q7 5 38.5 29.5t52 37.5t30.5 13q13 0 22 -9.5t9 -21.5q0 -14 -13 -27z" />
    <glyph glyph-name="Acircumflex" unicode="&#xc2;" horiz-adv-x="1136" 
d="M967 444q-198 -16 -447 -71q-124 -185 -203 -328l-15 -30t-13.5 -26.5t-11 -18.5t-12.5 -13.5t-13 -3.5q-17 0 -27 20t-10 41q0 44 68 150q94 152 116 184q-349 -74 -354 -74q-29 0 -29 19q0 35 180 81q8 2 11 3q51 15 252 65q38 57 225.5 327.5t292.5 438.5q2 3 15.5 25
t19.5 30.5t19.5 27.5t22.5 28.5t21.5 21t24.5 16.5t24 5q42 0 75.5 -8.5t33.5 -22.5q0 -40 -14 -112q-52 -268 -101 -589t-49 -476q0 -49 1.5 -84t3 -50.5t1.5 -17.5q0 -15 -13 -25t-22 -10q-21 0 -51 14t-33 25q-14 54 -14 119q0 60 25 319zM979 537q47 387 90 610
q-61 -67 -203 -264.5t-284 -413.5q226 44 397 68zM1184 1591q-55 -38 -115 -87.5t-92 -76t-39 -26.5q-10 0 -17.5 8.5t-7.5 17.5q0 24 34 58.5t122 99.5q8 6 39.5 31t51.5 38t30 13q12 0 22 -10q10 -9 23 -28.5t28.5 -46.5t24.5 -40q5 -9 13 -21.5t12.5 -20t9 -16t6.5 -15
t2 -11.5q0 -13 -9 -26t-22 -13q-5 0 -9 3.5t-11.5 16t-17 29.5t-31 51t-47.5 72z" />
    <glyph glyph-name="Atilde" unicode="&#xc3;" horiz-adv-x="1136" 
d="M967 444q-198 -16 -447 -71q-124 -185 -203 -328l-15 -30t-13.5 -26.5t-11 -18.5t-12.5 -13.5t-13 -3.5q-17 0 -27 20t-10 41q0 44 68 150q94 152 116 184q-349 -74 -354 -74q-29 0 -29 19q0 35 180 81q8 2 11 3q51 15 252 65q38 57 225.5 327.5t292.5 438.5q2 3 15.5 25
t19.5 30.5t19.5 27.5t22.5 28.5t21.5 21t24.5 16.5t24 5q42 0 75.5 -8.5t33.5 -22.5q0 -40 -14 -112q-52 -268 -101 -589t-49 -476q0 -49 1.5 -84t3 -50.5t1.5 -17.5q0 -15 -13 -25t-22 -10q-21 0 -51 14t-33 25q-14 54 -14 119q0 60 25 319zM979 537q47 387 90 610
q-61 -67 -203 -264.5t-284 -413.5q226 44 397 68zM1341 1550q-3 -34 -53.5 -67t-101.5 -33q-34 0 -79 30.5t-63 30.5q-27 0 -66.5 -30.5t-51.5 -30.5q-8 0 -8 8q0 13 14 29q80 88 149 88q25 0 73.5 -29.5t76.5 -29.5q23 0 56 22.5t40 22.5q14 0 14 -11z" />
    <glyph glyph-name="Adieresis" unicode="&#xc4;" horiz-adv-x="1136" 
d="M967 444q-198 -16 -447 -71q-124 -185 -203 -328l-15 -30t-13.5 -26.5t-11 -18.5t-12.5 -13.5t-13 -3.5q-17 0 -27 20t-10 41q0 44 68 150q94 152 116 184q-349 -74 -354 -74q-29 0 -29 19q0 35 180 81q8 2 11 3q51 15 252 65q38 57 225.5 327.5t292.5 438.5q2 3 15.5 25
t19.5 30.5t19.5 27.5t22.5 28.5t21.5 21t24.5 16.5t24 5q42 0 75.5 -8.5t33.5 -22.5q0 -40 -14 -112q-52 -268 -101 -589t-49 -476q0 -49 1.5 -84t3 -50.5t1.5 -17.5q0 -15 -13 -25t-22 -10q-21 0 -51 14t-33 25q-14 54 -14 119q0 60 25 319zM979 537q47 387 90 610
q-61 -67 -203 -264.5t-284 -413.5q226 44 397 68zM1286 1460q-23 0 -42 19.5t-19 42.5q0 47 35 82.5t81 35.5q50 0 50 -69q0 -23 -8 -46.5t-33 -44t-64 -20.5zM1034 1450q-34 0 -56 15.5t-22 41.5q0 32 33 75.5t74 43.5q31 0 47 -20.5t16 -49.5q0 -40 -29.5 -73t-62.5 -33z
" />
    <glyph glyph-name="Aring" unicode="&#xc5;" horiz-adv-x="1136" 
d="M967 444q-198 -16 -447 -71q-124 -185 -203 -328l-15 -30t-13.5 -26.5t-11 -18.5t-12.5 -13.5t-13 -3.5q-17 0 -27 20t-10 41q0 44 68 150q94 152 116 184q-349 -74 -354 -74q-29 0 -29 19q0 35 180 81q8 2 11 3q51 15 252 65q38 57 225.5 327.5t292.5 438.5q2 3 15.5 25
t19.5 30.5t19.5 27.5t22.5 28.5t21.5 21t24.5 16.5t24 5q42 0 75.5 -8.5t33.5 -22.5q0 -40 -14 -112q-52 -268 -101 -589t-49 -476q0 -49 1.5 -84t3 -50.5t1.5 -17.5q0 -15 -13 -25t-22 -10q-21 0 -51 14t-33 25q-14 54 -14 119q0 60 25 319zM979 537q47 387 90 610
q-61 -67 -203 -264.5t-284 -413.5q226 44 397 68zM1288 1569q0 -60 -46.5 -104t-108.5 -44q-49 0 -77 31.5t-28 69.5q0 64 45.5 106.5t110.5 42.5q39 0 71.5 -31t32.5 -71zM1227 1563q0 57 -51 57q-34 0 -62.5 -29t-28.5 -61q0 -26 15.5 -39.5t40.5 -13.5q33 0 59.5 23.5
t26.5 62.5z" />
    <glyph glyph-name="AE" unicode="&#xc6;" horiz-adv-x="1642" 
d="M207 367l123 32q121 141 354 399t352 394q50 56 109.5 105t97.5 49q17 0 35.5 -7.5t26.5 -21.5q362 37 675 37q52 0 79.5 -8.5t27.5 -36.5q0 -9 -7 -15.5t-23.5 -10t-27 -5t-35 -2.5t-30.5 -2q-322 -26 -586 -68q-44 -7 -59 -20t-35 -56q-83 -176 -254 -606
q207 19 395 19q224 0 224 -37q0 -47 -113 -47q-45 -1 -98.5 -4t-116.5 -8t-98 -7q-120 -6 -234 -18q-50 -122 -84.5 -218.5t-34.5 -109.5q0 -17 10 -21.5t35 -4.5l216 9q216 9 325 9q125 0 125 -33q0 -13 -15 -24t-34 -13q-76 -3 -317 -22t-334 -35q-60 -12 -86 -12
q-23 0 -42.5 17.5t-19.5 39.5q0 13 5 34.5t14.5 51.5t17.5 54t21 60t18 50q31 87 57 154q-282 -36 -467 -78q-159 -182 -252 -301q-10 -13 -22.5 -29.5t-19.5 -25.5t-15 -18t-15 -13t-14 -4q-19 0 -32 16t-13 43q0 32 99 149q120 143 127 150q-179 -35 -197 -35
q-29 0 -29 21q0 8 6.5 15.5t19.5 14t26.5 12.5t34.5 12.5t35 10.5t36.5 10t32.5 9zM905 510q181 487 225 612q-147 -132 -638 -684q195 44 413 72z" />
    <glyph glyph-name="Ccedilla" unicode="&#xc7;" horiz-adv-x="897" 
d="M553 -70q-33 -54 -68 -86q19 11 47 11q26 0 43 -13.5t17 -40.5q0 -80 -80 -152.5t-190 -72.5q-24 0 -41 6t-17 12t4.5 10.5t10.5 4.5q2 0 16.5 -2t32.5 -2q48 0 121 66.5t73 125.5q0 25 -30 25q-23 0 -65.5 -34t-61.5 -34l-3 2q0 1 5 6q48 52 116 168
q-134 11 -231.5 93.5t-97.5 205.5q0 134 91.5 332t230 386t282.5 315q160 135 252 135q77 0 154 -63t77 -150q0 -55 -34 -132.5t-78.5 -141t-87 -109t-60.5 -45.5q-19 0 -25 7.5t-6 27.5q0 36 29 97t64.5 117t64.5 120t29 106q0 33 -17 60.5t-51 27.5q-56 0 -139 -58
t-170 -151.5t-175 -215.5t-156.5 -245t-111.5 -244.5t-43 -209.5q0 -61 15.5 -101.5t46.5 -61t66 -28.5t85 -8q84 0 167 37t192 131q62 53 112.5 107t71 79t27.5 25q16 0 16 -23q0 -28 -47 -94q-109 -135 -230.5 -225t-242.5 -103z" />
    <glyph glyph-name="Egrave" unicode="&#xc8;" horiz-adv-x="950" 
d="M291 430q-115 -296 -115 -321q0 -16 11 -20.5t36 -4.5q11 0 109 4t224.5 8t205.5 4q127 0 127 -32q0 -12 -15.5 -24t-35.5 -13q-81 -3 -320 -21.5t-330 -34.5q-72 -12 -88 -12q-22 0 -40.5 17t-18.5 38q0 13 5 34.5t14.5 52.5t17.5 54t21.5 61t17.5 50q34 92 90.5 240
t98 258.5t83 225.5t64 193t22.5 111q0 10 10 16.5t27.5 9.5t33.5 4.5t37 2.5t29 2q413 37 676 37q24 0 40.5 -1.5t33 -5.5t25 -13.5t8.5 -24.5q0 -9 -7 -15.5t-23.5 -10t-27.5 -5t-36 -2.5t-31 -2q-393 -37 -586 -67q-21 -4 -32 -7t-19.5 -10.5t-11 -12t-10 -20t-13.5 -26.5
q-85 -152 -264 -602q66 1 210 7.5t189 6.5q67 0 144 -8.5t77 -28.5q0 -47 -112 -47q-58 -1 -173 -10t-141 -10q-81 -4 -237 -25zM965 1446q-12 0 -25.5 23.5t-50.5 89.5t-84 133q-4 6 -4 18q0 13 10.5 23t24.5 10q7 0 16 -8t18.5 -22.5t18 -28.5t20 -34t17.5 -30
q69 -104 69 -133q0 -15 -8 -28t-22 -13z" />
    <glyph glyph-name="Eacute" unicode="&#xc9;" horiz-adv-x="950" 
d="M291 430q-115 -296 -115 -321q0 -16 11 -20.5t36 -4.5q11 0 109 4t224.5 8t205.5 4q127 0 127 -32q0 -12 -15.5 -24t-35.5 -13q-81 -3 -320 -21.5t-330 -34.5q-72 -12 -88 -12q-22 0 -40.5 17t-18.5 38q0 13 5 34.5t14.5 52.5t17.5 54t21.5 61t17.5 50q34 92 90.5 240
t98 258.5t83 225.5t64 193t22.5 111q0 10 10 16.5t27.5 9.5t33.5 4.5t37 2.5t29 2q413 37 676 37q24 0 40.5 -1.5t33 -5.5t25 -13.5t8.5 -24.5q0 -9 -7 -15.5t-23.5 -10t-27.5 -5t-36 -2.5t-31 -2q-393 -37 -586 -67q-21 -4 -32 -7t-19.5 -10.5t-11 -12t-10 -20t-13.5 -26.5
q-85 -152 -264 -602q66 1 210 7.5t189 6.5q67 0 144 -8.5t77 -28.5q0 -47 -112 -47q-58 -1 -173 -10t-141 -10q-81 -4 -237 -25zM1108 1653q-61 -41 -126.5 -95t-101 -84t-44.5 -30t-17 8.5t-8 17.5q0 24 34.5 58.5t123.5 99.5q9 6 39 30t51 38t31 14q13 0 21.5 -10t8.5 -21
q0 -17 -12 -26z" />
    <glyph glyph-name="Ecircumflex" unicode="&#xca;" horiz-adv-x="950" 
d="M291 430q-115 -296 -115 -321q0 -16 11 -20.5t36 -4.5q11 0 109 4t224.5 8t205.5 4q127 0 127 -32q0 -12 -15.5 -24t-35.5 -13q-81 -3 -320 -21.5t-330 -34.5q-72 -12 -88 -12q-22 0 -40.5 17t-18.5 38q0 13 5 34.5t14.5 52.5t17.5 54t21.5 61t17.5 50q34 92 90.5 240
t98 258.5t83 225.5t64 193t22.5 111q0 10 10 16.5t27.5 9.5t33.5 4.5t37 2.5t29 2q413 37 676 37q24 0 40.5 -1.5t33 -5.5t25 -13.5t8.5 -24.5q0 -9 -7 -15.5t-23.5 -10t-27.5 -5t-36 -2.5t-31 -2q-393 -37 -586 -67q-21 -4 -32 -7t-19.5 -10.5t-11 -12t-10 -20t-13.5 -26.5
q-85 -152 -264 -602q66 1 210 7.5t189 6.5q67 0 144 -8.5t77 -28.5q0 -47 -112 -47q-58 -1 -173 -10t-141 -10q-81 -4 -237 -25zM983 1620q-55 -38 -114.5 -87t-91.5 -76t-40 -27q-10 0 -17 8.5t-7 19.5q0 24 34 58.5t123 97.5q7 6 23 18.5t28 22t26 20t25.5 16t18.5 5.5
q9 0 21 -8q10 -10 22.5 -28.5t30 -48.5t22.5 -38t13 -21.5t12 -20.5t9 -16t7 -15t2 -11q0 -15 -8.5 -28t-21.5 -13q-5 0 -9 3.5t-12 16.5t-17.5 29.5t-31 50.5t-47.5 72z" />
    <glyph glyph-name="Edieresis" unicode="&#xcb;" horiz-adv-x="950" 
d="M291 430q-115 -296 -115 -321q0 -16 11 -20.5t36 -4.5q11 0 109 4t224.5 8t205.5 4q127 0 127 -32q0 -12 -15.5 -24t-35.5 -13q-81 -3 -320 -21.5t-330 -34.5q-72 -12 -88 -12q-22 0 -40.5 17t-18.5 38q0 13 5 34.5t14.5 52.5t17.5 54t21.5 61t17.5 50q34 92 90.5 240
t98 258.5t83 225.5t64 193t22.5 111q0 10 10 16.5t27.5 9.5t33.5 4.5t37 2.5t29 2q413 37 676 37q24 0 40.5 -1.5t33 -5.5t25 -13.5t8.5 -24.5q0 -9 -7 -15.5t-23.5 -10t-27.5 -5t-36 -2.5t-31 -2q-393 -37 -586 -67q-21 -4 -32 -7t-19.5 -10.5t-11 -12t-10 -20t-13.5 -26.5
q-85 -152 -264 -602q66 1 210 7.5t189 6.5q67 0 144 -8.5t77 -28.5q0 -47 -112 -47q-58 -1 -173 -10t-141 -10q-81 -4 -237 -25zM1055 1466q-23 0 -42.5 19.5t-19.5 42.5q0 47 35 83t80 36q51 0 51 -72q0 -24 -7.5 -46.5t-32.5 -42.5t-64 -20zM803 1456q-34 0 -56 15.5
t-22 41.5q0 32 32.5 75.5t73.5 43.5q32 0 48 -20t16 -49q0 -40 -29.5 -73.5t-62.5 -33.5z" />
    <glyph glyph-name="Igrave" unicode="&#xcc;" horiz-adv-x="690" 
d="M281 18l393 1135q-198 -25 -230 -25q-43 0 -43 19q0 9 9.5 18t28.5 17.5t37 15.5t47 14.5t46.5 12.5t46 11.5t35.5 8.5q99 23 223 37t205 16q76 0 76 -18q0 -50 -227 -86q-14 -3 -28.5 -5t-32 -4t-27.5 -3q-70 -154 -198 -486.5t-234 -650.5q116 21 124 21q34 0 75.5 -10
t41.5 -31q0 -31 -276.5 -85.5t-335.5 -54.5q-45 0 -45 27q0 39 289 106zM776 1378q-12 0 -25.5 23t-50.5 89t-84 134q-4 6 -4 18t10.5 22.5t22.5 10.5q8 0 17 -7.5t19 -22.5t18.5 -29t20 -34t17.5 -30q70 -108 70 -133q0 -15 -8.5 -28t-22.5 -13z" />
    <glyph glyph-name="Iacute" unicode="&#xcd;" horiz-adv-x="690" 
d="M281 18l393 1135q-198 -25 -230 -25q-43 0 -43 19q0 9 9.5 18t28.5 17.5t37 15.5t47 14.5t46.5 12.5t46 11.5t35.5 8.5q99 23 223 37t205 16q76 0 76 -18q0 -50 -227 -86q-14 -3 -28.5 -5t-32 -4t-27.5 -3q-70 -154 -198 -486.5t-234 -650.5q116 21 124 21q34 0 75.5 -10
t41.5 -31q0 -31 -276.5 -85.5t-335.5 -54.5q-45 0 -45 27q0 39 289 106zM995 1581q-60 -40 -125 -93.5t-100.5 -83.5t-44.5 -30t-17 8.5t-8 18.5q0 24 34.5 58.5t123.5 99.5q8 6 38.5 30t51 37.5t31.5 13.5q12 0 21.5 -9.5t9.5 -20.5q0 -17 -15 -29z" />
    <glyph glyph-name="Icircumflex" unicode="&#xce;" horiz-adv-x="690" 
d="M281 18l393 1135q-198 -25 -230 -25q-43 0 -43 19q0 9 9.5 18t28.5 17.5t37 15.5t47 14.5t46.5 12.5t46 11.5t35.5 8.5q99 23 223 37t205 16q76 0 76 -18q0 -50 -227 -86q-14 -3 -28.5 -5t-32 -4t-27.5 -3q-70 -154 -198 -486.5t-234 -650.5q116 21 124 21q34 0 75.5 -10
t41.5 -31q0 -31 -276.5 -85.5t-335.5 -54.5q-45 0 -45 27q0 39 289 106zM819 1552q-54 -38 -114 -87.5t-92 -76t-40 -26.5q-9 0 -16.5 9t-7.5 18q0 23 34 57.5t124 99.5q8 6 29.5 23.5t35 28.5t30 20.5t25.5 9.5q11 0 21 -10q11 -9 23.5 -27.5t30 -48.5t22.5 -39
q43 -67 43 -84q0 -13 -9 -26t-22 -13q-5 0 -9 3.5t-12 16.5t-17.5 29.5t-31 50.5t-47.5 72z" />
    <glyph glyph-name="Idieresis" unicode="&#xcf;" horiz-adv-x="690" 
d="M281 18l393 1135q-198 -25 -230 -25q-43 0 -43 19q0 9 9.5 18t28.5 17.5t37 15.5t47 14.5t46.5 12.5t46 11.5t35.5 8.5q99 23 223 37t205 16q76 0 76 -18q0 -50 -227 -86q-14 -3 -28.5 -5t-32 -4t-27.5 -3q-70 -154 -198 -486.5t-234 -650.5q116 21 124 21q34 0 75.5 -10
t41.5 -31q0 -31 -276.5 -85.5t-335.5 -54.5q-45 0 -45 27q0 39 289 106zM907 1393q-25 0 -43 18t-18 43q0 47 35 83t80 36q51 0 51 -72q0 -39 -24.5 -73.5t-80.5 -34.5zM655 1380q-35 0 -56 16.5t-21 43.5q0 32 32 75.5t72 43.5q33 0 49.5 -20.5t16.5 -49.5q0 -41 -30 -75
t-63 -34z" />
    <glyph glyph-name="Eth" unicode="&#xd0;" horiz-adv-x="1130" 
d="M348 610h-135q-25 0 -25 25q0 9 10.5 23.5t22.5 17.5q31 9 156 12q116 306 205 516q-56 -12 -158 -34.5t-151.5 -32t-71.5 -9.5q-82 0 -82 25q0 38 151 72q46 11 148 36.5t141.5 34.5t116.5 25.5t122 23t105 12t115 5.5q138 0 221 -38.5t145 -127.5q62 -83 62 -184
q0 -222 -318 -596q-99 -117 -246.5 -227t-314.5 -183.5t-295 -73.5q-27 0 -66.5 46.5t-39.5 70.5q0 28 29 123t57 168q59 172 96 270zM737 612h-266q-23 -58 -127 -336q-61 -161 -61 -217q0 -39 49 -39q43 0 120 27t174.5 77.5t209 141t200.5 199.5q119 145 205 308t86 298
q0 36 -6 64.5t-19 48.5t-27 35t-36.5 24t-39.5 14t-45 7.5t-44.5 3t-44.5 0.5q-127 0 -328 -35q-145 -323 -233 -541q196 4 211 4q114 0 114 -32q0 -18 -24.5 -35t-67.5 -17z" />
    <glyph glyph-name="Ntilde" unicode="&#xd1;" horiz-adv-x="933" 
d="M682 96q271 771 418 1121q35 83 43 92q10 10 22 10q56 0 56 -27q0 -9 -76.5 -208t-179 -491t-152.5 -489q-6 -29 -10 -43.5t-13 -32.5t-22 -30q-47 -47 -123 -47q-23 0 -41.5 26t-31 73.5t-21.5 107.5t-14 135.5t-7 149t-2 155.5q0 282 15 496q-32 -33 -151.5 -390
t-209.5 -694q-3 -15 -21.5 -30t-35.5 -15q-16 0 -29.5 18.5t-13.5 34.5t48 192t140.5 473.5t186.5 553.5q25 64 43.5 77t89.5 13q52 0 82 -23t30 -51q0 -2 -7 -46t-17 -117t-20.5 -161t-17.5 -197.5t-7 -207.5q0 -281 49 -428zM1102 1520q-3 -34 -54 -67.5t-102 -33.5
q-34 0 -78.5 31t-62.5 31q-26 0 -65.5 -31t-51.5 -31q-8 0 -8 6q0 14 12 31q82 86 152 86q24 0 72 -28.5t77 -28.5q23 0 55.5 22.5t38.5 22.5q15 0 15 -10z" />
    <glyph glyph-name="Ograve" unicode="&#xd2;" horiz-adv-x="1173" 
d="M561 -74q-59 0 -127.5 24t-122.5 62q-56 39 -88.5 70.5t-47 65t-18 58.5t-3.5 70q0 192 126 456.5t289 455.5q39 46 63 71.5t65.5 62.5t85 55t89.5 18q65 0 207 -44.5t215 -113.5q105 -97 105 -213q0 -77 -31 -188t-85.5 -233t-134 -243t-169.5 -217.5t-200 -156.5
t-218 -60zM510 2q100 0 201.5 54.5t185 143t157 201t124 228t79.5 225.5t29 193q0 58 -20 106t-53.5 79.5t-77.5 53.5t-91 31.5t-96 9.5q-74 0 -145 -61q-140 -121 -264 -310t-197 -386.5t-74 -346.5q0 -37 11 -69q22 -73 86 -112.5t145 -39.5zM1167 1421q-12 0 -25.5 23.5
t-50 90t-83.5 134.5q-4 6 -4 19q0 12 10 22t22 10q8 0 17 -7.5t19 -22.5t18.5 -29t20 -34t17.5 -30q70 -108 70 -135q0 -13 -9 -27t-22 -14z" />
    <glyph glyph-name="Oacute" unicode="&#xd3;" horiz-adv-x="1173" 
d="M561 -74q-59 0 -127.5 24t-122.5 62q-56 39 -88.5 70.5t-47 65t-18 58.5t-3.5 70q0 192 126 456.5t289 455.5q39 46 63 71.5t65.5 62.5t85 55t89.5 18q65 0 207 -44.5t215 -113.5q105 -97 105 -213q0 -77 -31 -188t-85.5 -233t-134 -243t-169.5 -217.5t-200 -156.5
t-218 -60zM510 2q100 0 201.5 54.5t185 143t157 201t124 228t79.5 225.5t29 193q0 58 -20 106t-53.5 79.5t-77.5 53.5t-91 31.5t-96 9.5q-74 0 -145 -61q-140 -121 -264 -310t-197 -386.5t-74 -346.5q0 -37 11 -69q22 -73 86 -112.5t145 -39.5zM1403 1665
q-60 -41 -125.5 -94t-101 -83t-43.5 -30q-10 0 -17.5 8t-7.5 19q0 23 33.5 57t122.5 100q12 8 40 31t49 37t31 14q13 0 23 -10t10 -22q0 -16 -14 -27z" />
    <glyph glyph-name="Ocircumflex" unicode="&#xd4;" horiz-adv-x="1173" 
d="M561 -74q-59 0 -127.5 24t-122.5 62q-56 39 -88.5 70.5t-47 65t-18 58.5t-3.5 70q0 192 126 456.5t289 455.5q39 46 63 71.5t65.5 62.5t85 55t89.5 18q65 0 207 -44.5t215 -113.5q105 -97 105 -213q0 -77 -31 -188t-85.5 -233t-134 -243t-169.5 -217.5t-200 -156.5
t-218 -60zM510 2q100 0 201.5 54.5t185 143t157 201t124 228t79.5 225.5t29 193q0 58 -20 106t-53.5 79.5t-77.5 53.5t-91 31.5t-96 9.5q-74 0 -145 -61q-140 -121 -264 -310t-197 -386.5t-74 -346.5q0 -37 11 -69q22 -73 86 -112.5t145 -39.5zM956 1649q-54 -38 -113 -88
t-91 -76.5t-39 -26.5q-11 0 -19 8t-8 19q0 23 34 57.5t124 99.5q9 6 39 30t51 38t31 14q12 0 22 -10t23 -30t28.5 -46t24.5 -39q6 -10 16 -26t14.5 -24t8.5 -17.5t4 -15.5q0 -15 -9.5 -28t-23.5 -13q-5 0 -8.5 3.5t-11 16.5t-17.5 30t-31.5 51t-48.5 73z" />
    <glyph glyph-name="Otilde" unicode="&#xd5;" horiz-adv-x="1173" 
d="M561 -74q-59 0 -127.5 24t-122.5 62q-56 39 -88.5 70.5t-47 65t-18 58.5t-3.5 70q0 192 126 456.5t289 455.5q39 46 63 71.5t65.5 62.5t85 55t89.5 18q65 0 207 -44.5t215 -113.5q105 -97 105 -213q0 -77 -31 -188t-85.5 -233t-134 -243t-169.5 -217.5t-200 -156.5
t-218 -60zM510 2q100 0 201.5 54.5t185 143t157 201t124 228t79.5 225.5t29 193q0 58 -20 106t-53.5 79.5t-77.5 53.5t-91 31.5t-96 9.5q-74 0 -145 -61q-140 -121 -264 -310t-197 -386.5t-74 -346.5q0 -37 11 -69q22 -73 86 -112.5t145 -39.5zM1192 1552q-3 -34 -53.5 -67
t-102.5 -33q-33 0 -77 30.5t-62 30.5q-27 0 -67 -30.5t-52 -30.5q-8 0 -8 6q0 15 14 31q34 37 74 61.5t76 24.5q25 0 73 -28.5t76 -28.5q23 0 56.5 22.5t40.5 22.5q12 0 12 -11z" />
    <glyph glyph-name="Odieresis" unicode="&#xd6;" horiz-adv-x="1173" 
d="M1303 1364q-23 0 -41.5 18t-18.5 41q0 49 35 84t80 35q51 0 51 -69q0 -39 -25 -74t-81 -35zM1053 1452q-35 0 -56.5 15.5t-21.5 41.5q0 32 32 75.5t72 43.5q33 0 49.5 -20t16.5 -49q0 -40 -29.5 -73.5t-62.5 -33.5zM561 -74q-59 0 -127.5 24t-122.5 62q-56 39 -88.5 70.5
t-47 65t-18 58.5t-3.5 70q0 192 126 456.5t289 455.5q39 46 63 71.5t65.5 62.5t85 55t89.5 18q65 0 207 -44.5t215 -113.5q105 -97 105 -213q0 -77 -31 -188t-85.5 -233t-134 -243t-169.5 -217.5t-200 -156.5t-218 -60zM510 2q100 0 201.5 54.5t185 143t157 201t124 228
t79.5 225.5t29 193q0 58 -20 106t-53.5 79.5t-77.5 53.5t-91 31.5t-96 9.5q-74 0 -145 -61q-140 -121 -264 -310t-197 -386.5t-74 -346.5q0 -37 11 -69q22 -73 86 -112.5t145 -39.5z" />
    <glyph glyph-name="multiply" unicode="&#xd7;" horiz-adv-x="548" 
d="M365 291l-48 196l-251 -272q-10 -10 -17 -10q-12 0 -20 6.5t-10.5 12t-2.5 7.5q0 19 283 332q-59 253 -59 275t28 22q39 0 49 -33q27 -127 45 -198q145 160 216 231q6 6 12 6q11 0 20 -7t12 -13t3 -8t-2 -5.5t-4.5 -8.5l-4.5 -9l-237 -260q65 -282 65 -285q0 -18 -26 -18
q-16 0 -32 11.5t-19 27.5z" />
    <glyph glyph-name="Oslash" unicode="&#xd8;" horiz-adv-x="1173" 
d="M172 -168l-2 2q-12 7 -20.5 20.5t-8.5 22.5q-3 19 113 178q-66 55 -83 100t-17 121q0 192 126 456.5t289 455.5q39 46 63 71.5t65.5 62.5t85 55t89.5 18q51 0 167 -32.5t198 -84.5q66 69 106 104q19 15 29 15q16 0 28.5 -12t12.5 -23q0 -9 -4 -18t-15.5 -23t-20.5 -23.5
t-32.5 -32.5t-37.5 -38q96 -96 96 -203q0 -77 -31 -188t-85.5 -233t-134 -243t-169.5 -217.5t-200 -156.5t-218 -60q-57 0 -124.5 23t-121.5 59q-61 -80 -120 -162q-8 -14 -23 -14zM1255 1176l-32 -37q-420 -480 -875 -1086q66 -51 162 -51q100 0 201.5 54.5t185 143
t157 201t124 228t79.5 225.5t29 193q0 65 -31 129zM295 111q182 250 451.5 587t455.5 541q-47 44 -115.5 66t-138.5 22q-74 0 -145 -61q-140 -121 -264 -310t-197 -386.5t-74 -346.5q0 -37 11 -69q3 -14 16 -43z" />
    <glyph glyph-name="Ugrave" unicode="&#xd9;" horiz-adv-x="868" 
d="M752 219q-35 -52 -77 -100t-96 -94.5t-118 -74.5t-127 -28q-113 0 -179.5 70t-66.5 192q0 63 31 179t78.5 247t91 243t83 207t40.5 97q11 28 16.5 39.5t15.5 20t25 8.5q21 0 61.5 -19.5t40.5 -36.5q0 -3 -39.5 -87t-96 -210.5t-112.5 -264t-95.5 -270.5t-39.5 -208
q0 -117 111 -117q66 0 135.5 38t130.5 101.5t112 138t91 156.5q194 394 293 777q6 29 18.5 38t46.5 9q20 0 37 -16t17 -42q0 -19 -25 -94q-210 -606 -403 -899zM817 1335q-12 0 -25.5 23.5t-50.5 89.5t-84 133q-4 6 -4 18t10.5 22.5t22.5 10.5q8 0 17 -7.5t19 -22.5
t18.5 -29t20 -34t17.5 -30q70 -108 70 -133q0 -15 -9 -28t-22 -13z" />
    <glyph glyph-name="Uacute" unicode="&#xda;" horiz-adv-x="868" 
d="M752 219q-35 -52 -77 -100t-96 -94.5t-118 -74.5t-127 -28q-113 0 -179.5 70t-66.5 192q0 63 31 179t78.5 247t91 243t83 207t40.5 97q11 28 16.5 39.5t15.5 20t25 8.5q21 0 61.5 -19.5t40.5 -36.5q0 -3 -39.5 -87t-96 -210.5t-112.5 -264t-95.5 -270.5t-39.5 -208
q0 -117 111 -117q66 0 135.5 38t130.5 101.5t112 138t91 156.5q194 394 293 777q6 29 18.5 38t46.5 9q20 0 37 -16t17 -42q0 -19 -25 -94q-210 -606 -403 -899zM1008 1505q-60 -40 -125.5 -93.5t-101.5 -83.5t-44 -30q-10 0 -17 8t-7 19q0 24 34 58.5t123 99.5
q9 7 38.5 30.5t50.5 37.5t32 14q12 0 21.5 -10t9.5 -21q0 -18 -14 -29z" />
    <glyph glyph-name="Ucircumflex" unicode="&#xdb;" horiz-adv-x="868" 
d="M752 219q-35 -52 -77 -100t-96 -94.5t-118 -74.5t-127 -28q-113 0 -179.5 70t-66.5 192q0 63 31 179t78.5 247t91 243t83 207t40.5 97q11 28 16.5 39.5t15.5 20t25 8.5q21 0 61.5 -19.5t40.5 -36.5q0 -3 -39.5 -87t-96 -210.5t-112.5 -264t-95.5 -270.5t-39.5 -208
q0 -117 111 -117q66 0 135.5 38t130.5 101.5t112 138t91 156.5q194 394 293 777q6 29 18.5 38t46.5 9q20 0 37 -16t17 -42q0 -19 -25 -94q-210 -606 -403 -899zM840 1511q-54 -38 -113.5 -87.5t-91 -76t-39.5 -26.5q-10 0 -18.5 9t-8.5 18q0 25 34 59t124 98q7 5 23.5 18.5
t28.5 22.5t26.5 19.5t25 16t17.5 5.5q12 0 22 -10q10 -9 23 -28.5t28.5 -46.5t24.5 -40q5 -9 13 -21.5t12.5 -20t9 -15.5t6.5 -14t2 -11q0 -15 -9.5 -28t-23.5 -13q-7 0 -13 10t-34 56.5t-69 105.5z" />
    <glyph glyph-name="Udieresis" unicode="&#xdc;" horiz-adv-x="868" 
d="M752 219q-35 -52 -77 -100t-96 -94.5t-118 -74.5t-127 -28q-113 0 -179.5 70t-66.5 192q0 63 31 179t78.5 247t91 243t83 207t40.5 97q11 28 16.5 39.5t15.5 20t25 8.5q21 0 61.5 -19.5t40.5 -36.5q0 -3 -39.5 -87t-96 -210.5t-112.5 -264t-95.5 -270.5t-39.5 -208
q0 -117 111 -117q66 0 135.5 38t130.5 101.5t112 138t91 156.5q194 394 293 777q6 29 18.5 38t46.5 9q20 0 37 -16t17 -42q0 -19 -25 -94q-210 -606 -403 -899zM938 1370q-23 0 -42 18.5t-19 41.5q0 49 34.5 83.5t79.5 34.5q51 0 51 -69q0 -24 -7.5 -46.5t-32.5 -42.5
t-64 -20zM686 1358q-34 0 -56 16t-22 43q0 32 33 75.5t74 43.5q31 0 47 -21.5t16 -50.5q0 -39 -29.5 -72.5t-62.5 -33.5z" />
    <glyph glyph-name="Yacute" unicode="&#xdd;" horiz-adv-x="911" 
d="M766 375q-108 -155 -158 -213q-132 -154 -227 -154q-44 0 -86.5 13.5t-80.5 41t-61.5 78.5t-23.5 117q0 186 309 901q39 94 60 122t45 28q42 0 52.5 -12.5t10.5 -49.5q0 -6 -38.5 -88t-94 -205t-110.5 -258t-93.5 -270t-38.5 -217q0 -59 26.5 -102.5t70.5 -43.5
q58 0 123 40.5t120 101.5t105.5 133.5t84.5 136.5t52 111q158 413 234 618q3 9 9 27.5t11 32t12 28t16.5 22t20.5 7.5q28 0 64.5 -10.5t36.5 -24.5q0 -10 -10 -32.5t-25.5 -52.5t-20.5 -40q-127 -278 -223.5 -582.5t-187.5 -680.5q-17 -72 -35.5 -130.5t-51 -125.5t-71 -112
t-96.5 -75t-127 -30q-111 0 -206 63t-159 164q-45 67 -45 102q0 23 18 23q11 0 23.5 -16t29.5 -50t19 -37q43 -72 128 -131t157 -59q55 0 102 32.5t84 92.5t64 124t53 148q24 81 65.5 249t63.5 245zM1069 1577q-61 -40 -126.5 -93.5t-101 -83.5t-44.5 -30t-17 8.5t-8 18.5
q0 23 34 57.5t124 99.5q9 6 39 30t51 38t31 14q13 0 21.5 -9.5t8.5 -20.5q0 -17 -12 -29z" />
    <glyph glyph-name="Thorn" unicode="&#xde;" horiz-adv-x="1191" 
d="M426 172l-49 -149q-3 -9 -7 -27.5t-7 -28t-9.5 -21.5t-17 -17t-25.5 -5q-22 0 -37.5 13t-15.5 36q0 19 27.5 108t96 285.5t103 294t127.5 359.5q-30 -7 -100.5 -24t-104 -24t-85.5 -17.5t-92 -14.5t-76 -4q-58 0 -58 18q0 16 15 21q260 93 540 151l80 228
q16 45 47.5 69.5t63.5 24.5q26 0 42.5 -12t16.5 -33q0 -12 -104 -248q155 27 204 27q132 0 199.5 -23.5t145.5 -93.5q79 -73 106 -116.5t27 -114.5q0 -123 -143.5 -259.5t-388.5 -246.5t-521 -156zM754 1047q-147 -354 -299 -791q179 26 348.5 96.5t289.5 159.5t192.5 190
t72.5 189q0 89 -66.5 138.5t-195.5 49.5q-172 0 -342 -32z" />
    <glyph glyph-name="germandbls" unicode="&#xdf;" horiz-adv-x="749" 
d="M135 88q-71 -222 -135 -487q-7 -23 -11.5 -35t-16 -23.5t-27.5 -11.5q-15 0 -29 9t-14 28q0 46 44.5 220t117 403.5t186 497.5t231.5 458q26 40 72.5 74t93.5 34q53 0 101 -51q35 -37 49 -61.5t14 -50.5q0 -106 -62 -244.5t-128 -210.5q85 -21 126 -75t41 -128
q0 -97 -59.5 -200.5t-162.5 -175.5t-212 -72q-130 0 -219 102zM584 592q-52 -61 -102.5 -97t-88.5 -36q-34 0 -51.5 15.5t-17.5 39.5q0 53 72 89t159 38q47 59 105.5 198.5t58.5 227.5t-70 88q-31 0 -82 -66t-115.5 -187.5t-142.5 -315.5t-153 -428q80 -109 198 -109
q89 0 175 61.5t137 150t51 169.5q0 129 -133 162zM518 592q-62 -7 -104.5 -27.5t-42.5 -40.5q0 -6 8 -10t16 -4q57 0 123 82z" />
    <glyph glyph-name="agrave" unicode="&#xe0;" 
d="M397 135q-12 -18 -29.5 -39.5t-49 -55t-69.5 -55.5t-73 -22q-66 0 -99.5 39t-33.5 86q0 65 26.5 132t77.5 161q61 112 155.5 213.5t148.5 101.5q55 0 96 -31.5t45 -101.5q17 0 40 -16.5t23 -24.5q0 -15 -34 -76q-45 -74 -101.5 -215.5t-56.5 -195.5q0 -35 29 -35
q84 0 213 188q11 15 41.5 64t51.5 77.5t29 28.5q11 0 11 -20q0 -21 -54 -117t-116 -170q-90 -108 -170 -108q-53 0 -79 44t-26 105q0 31 4 43zM471 375q-14 0 -14 16q0 6 17.5 40.5t35.5 79.5t18 77q0 28 -22 28q-49 0 -139.5 -103t-163 -240t-72.5 -220q0 -19 11.5 -32
t31.5 -13q42 0 105.5 62.5t123.5 162.5q14 23 31 57t27 58t10 27zM446 776q-12 0 -26 23.5t-50 90t-83 134.5q-4 6 -4 16q0 14 9.5 23.5t22.5 9.5q11 0 26 -18t37.5 -55t29.5 -48q69 -110 69 -135q0 -15 -9 -28t-22 -13z" />
    <glyph glyph-name="aacute" unicode="&#xe1;" 
d="M397 135q-12 -18 -29.5 -39.5t-49 -55t-69.5 -55.5t-73 -22q-66 0 -99.5 39t-33.5 86q0 65 26.5 132t77.5 161q61 112 155.5 213.5t148.5 101.5q55 0 96 -31.5t45 -101.5q17 0 40 -16.5t23 -24.5q0 -15 -34 -76q-45 -74 -101.5 -215.5t-56.5 -195.5q0 -35 29 -35
q84 0 213 188q11 15 41.5 64t51.5 77.5t29 28.5q11 0 11 -20q0 -21 -54 -117t-116 -170q-90 -108 -170 -108q-53 0 -79 44t-26 105q0 31 4 43zM471 375q-14 0 -14 16q0 6 17.5 40.5t35.5 79.5t18 77q0 28 -22 28q-49 0 -139.5 -103t-163 -240t-72.5 -220q0 -19 11.5 -32
t31.5 -13q42 0 105.5 62.5t123.5 162.5q14 23 31 57t27 58t10 27zM618 985q-60 -41 -125.5 -95t-101 -84t-43.5 -30q-10 0 -17 8.5t-7 18.5q0 25 34 60t123 98q7 5 23 18.5t28 22.5t26.5 19t25.5 15.5t18 5.5q12 0 21.5 -9t9.5 -21q0 -18 -15 -27z" />
    <glyph glyph-name="acircumflex" unicode="&#xe2;" 
d="M397 135q-12 -18 -29.5 -39.5t-49 -55t-69.5 -55.5t-73 -22q-66 0 -99.5 39t-33.5 86q0 65 26.5 132t77.5 161q61 112 155.5 213.5t148.5 101.5q55 0 96 -31.5t45 -101.5q17 0 40 -16.5t23 -24.5q0 -15 -34 -76q-45 -74 -101.5 -215.5t-56.5 -195.5q0 -35 29 -35
q84 0 213 188q11 15 41.5 64t51.5 77.5t29 28.5q11 0 11 -20q0 -21 -54 -117t-116 -170q-90 -108 -170 -108q-53 0 -79 44t-26 105q0 31 4 43zM471 375q-14 0 -14 16q0 6 17.5 40.5t35.5 79.5t18 77q0 28 -22 28q-49 0 -139.5 -103t-163 -240t-72.5 -220q0 -19 11.5 -32
t31.5 -13q42 0 105.5 62.5t123.5 162.5q14 23 31 57t27 58t10 27zM506 946q-54 -38 -114 -87.5t-92 -76t-40 -26.5q-9 0 -16.5 8t-7.5 18q0 24 34 58.5t123 99.5q9 7 38.5 30.5t50.5 37.5t32 14t21 -10q11 -9 23.5 -28t29 -48t22.5 -39q43 -67 43 -84q0 -14 -8.5 -27.5
t-21.5 -13.5q-5 0 -9 3.5t-12 16.5t-17.5 29.5t-31 51t-47.5 73.5z" />
    <glyph glyph-name="atilde" unicode="&#xe3;" 
d="M397 135q-12 -18 -29.5 -39.5t-49 -55t-69.5 -55.5t-73 -22q-66 0 -99.5 39t-33.5 86q0 65 26.5 132t77.5 161q61 112 155.5 213.5t148.5 101.5q55 0 96 -31.5t45 -101.5q17 0 40 -16.5t23 -24.5q0 -15 -34 -76q-45 -74 -101.5 -215.5t-56.5 -195.5q0 -35 29 -35
q84 0 213 188q11 15 41.5 64t51.5 77.5t29 28.5q11 0 11 -20q0 -21 -54 -117t-116 -170q-90 -108 -170 -108q-53 0 -79 44t-26 105q0 31 4 43zM471 375q-14 0 -14 16q0 6 17.5 40.5t35.5 79.5t18 77q0 28 -22 28q-49 0 -139.5 -103t-163 -240t-72.5 -220q0 -19 11.5 -32
t31.5 -13q42 0 105.5 62.5t123.5 162.5q14 23 31 57t27 58t10 27zM653 887q-3 -34 -53.5 -67.5t-101.5 -33.5q-33 0 -77.5 31t-62.5 31q-27 0 -66.5 -31t-51.5 -31q-9 0 -9 9q0 11 15 28q80 88 149 88q25 0 73 -29.5t77 -29.5q23 0 56 22.5t40 22.5q12 0 12 -10z" />
    <glyph glyph-name="adieresis" unicode="&#xe4;" 
d="M397 135q-12 -18 -29.5 -39.5t-49 -55t-69.5 -55.5t-73 -22q-66 0 -99.5 39t-33.5 86q0 65 26.5 132t77.5 161q61 112 155.5 213.5t148.5 101.5q55 0 96 -31.5t45 -101.5q17 0 40 -16.5t23 -24.5q0 -15 -34 -76q-45 -74 -101.5 -215.5t-56.5 -195.5q0 -35 29 -35
q84 0 213 188q11 15 41.5 64t51.5 77.5t29 28.5q11 0 11 -20q0 -21 -54 -117t-116 -170q-90 -108 -170 -108q-53 0 -79 44t-26 105q0 31 4 43zM471 375q-14 0 -14 16q0 6 17.5 40.5t35.5 79.5t18 77q0 28 -22 28q-49 0 -139.5 -103t-163 -240t-72.5 -220q0 -19 11.5 -32
t31.5 -13q42 0 105.5 62.5t123.5 162.5q14 23 31 57t27 58t10 27zM559 797q-24 0 -42.5 18.5t-18.5 42.5q0 47 35 83t79 36q52 0 52 -70q0 -39 -25 -74.5t-80 -35.5zM307 786q-35 0 -56.5 16t-21.5 42q0 32 32.5 75.5t72.5 43.5q33 0 49 -20.5t16 -49.5q0 -40 -29.5 -73.5
t-62.5 -33.5z" />
    <glyph glyph-name="aring" unicode="&#xe5;" 
d="M397 135q-12 -18 -29.5 -39.5t-49 -55t-69.5 -55.5t-73 -22q-66 0 -99.5 39t-33.5 86q0 65 26.5 132t77.5 161q61 112 155.5 213.5t148.5 101.5q55 0 96 -31.5t45 -101.5q17 0 40 -16.5t23 -24.5q0 -15 -34 -76q-45 -74 -101.5 -215.5t-56.5 -195.5q0 -35 29 -35
q84 0 213 188q11 15 41.5 64t51.5 77.5t29 28.5q11 0 11 -20q0 -21 -54 -117t-116 -170q-90 -108 -170 -108q-53 0 -79 44t-26 105q0 31 4 43zM471 375q-14 0 -14 16q0 6 17.5 40.5t35.5 79.5t18 77q0 28 -22 28q-49 0 -139.5 -103t-163 -240t-72.5 -220q0 -19 11.5 -32
t31.5 -13q42 0 105.5 62.5t123.5 162.5q14 23 31 57t27 58t10 27zM592 907q0 -60 -47 -103.5t-109 -43.5q-49 0 -77.5 31t-28.5 69q0 64 45.5 107t109.5 43q40 0 73.5 -31t33.5 -72zM530 901q0 57 -51 57q-34 0 -62 -29t-28 -61q0 -26 15 -39.5t40 -13.5q33 0 59.5 23.5
t26.5 62.5z" />
    <glyph glyph-name="ae" unicode="&#xe6;" horiz-adv-x="905" 
d="M592 547l16 22q57 68 99 102t81 34q64 0 114 -42.5t50 -76.5q0 -77 -48 -162t-112 -139t-112 -54q-57 0 -131 48q-57 -117 -57 -164q0 -97 116 -97q52 0 111 30t114.5 81t102 104.5t90.5 114.5q2 4 7.5 11.5t8 11l7.5 10.5t8 11t7 9t7.5 8t6.5 5.5t6 4t6 1.5
q7 0 13.5 -6.5t6.5 -14.5t-22.5 -53t-68 -109.5t-102.5 -125.5t-136.5 -104.5t-159.5 -43.5q-91 0 -157.5 45.5t-66.5 126.5q-12 -18 -29.5 -39.5t-49 -55t-69.5 -55.5t-73 -22q-66 0 -99.5 39t-33.5 86q0 45 18 101t34 89.5t52 102.5q63 113 156.5 214t147.5 101
q55 0 96 -31.5t45 -101.5v-16zM471 375q-14 0 -14 16q0 6 17.5 40.5t35.5 79.5t18 77q0 28 -22 28q-49 0 -139.5 -103t-163 -240t-72.5 -220q0 -19 11.5 -32t31.5 -13q42 0 105.5 62.5t123.5 162.5q14 23 31 57t27 58t10 27zM578 330q37 -37 77 -37q51 0 117 72
q37 41 69.5 99.5t32.5 108.5q0 25 -11 38.5t-27 13.5q-44 0 -118 -88.5t-140 -206.5z" />
    <glyph glyph-name="ccedilla" unicode="&#xe7;" horiz-adv-x="481" 
d="M297 -29q-28 -55 -70 -94q20 10 49 10q58 0 58 -53q0 -80 -80.5 -152.5t-190.5 -72.5q-24 0 -39.5 6t-15.5 14q0 5 4 9t8 4q3 0 18 -2t32 -2q50 0 122 66.5t72 125.5q0 25 -28 25q-23 0 -67 -34t-63 -34l-2 2q0 1 5 6q56 58 116 168q-79 5 -130.5 48t-51.5 122
q0 60 31.5 143.5t77.5 155.5q22 34 51.5 74.5t69 87.5t79.5 77.5t68 30.5q46 0 88 -30q51 -41 51 -82q0 -48 -42 -141t-77 -93q-41 0 -41 41q0 27 38 108t38 93q0 14 -8 14q-40 0 -123.5 -99t-130.5 -189q-23 -47 -35 -73t-23.5 -67.5t-11.5 -77.5q0 -47 28.5 -72.5
t70.5 -25.5q76 0 151.5 70t186.5 223q61 88 69 88q10 0 10 -16q0 -11 -17 -49.5t-50.5 -93t-75.5 -107t-101 -96t-118 -56.5z" />
    <glyph glyph-name="egrave" unicode="&#xe8;" horiz-adv-x="567" 
d="M213 279q-57 -105 -57 -164q0 -97 116 -97q52 0 111 30t114.5 80.5t102.5 105t90 114.5q5 7 14.5 20t15 20t12.5 15.5t13 12.5t11 4t11.5 -7t6.5 -14q0 -8 -23 -53t-68.5 -109.5t-102.5 -125.5t-136.5 -104.5t-158.5 -43.5q-91 0 -158.5 45.5t-67.5 126.5q0 83 63 204.5
t152 229.5q106 136 177 136q67 0 116 -42t49 -77q0 -77 -48 -162t-111.5 -139t-110.5 -54q-62 0 -133 48zM242 332q39 -39 80 -39q50 0 116 72q37 43 69 101t32 107q0 52 -41 52q-43 0 -117 -88t-139 -205zM446 774q-12 0 -26 23.5t-50 90t-83 134.5q-4 6 -4 16
q0 14 9.5 23.5t22.5 9.5q11 0 26 -18t37.5 -55t29.5 -48q69 -110 69 -135q0 -15 -9 -28t-22 -13z" />
    <glyph glyph-name="eacute" unicode="&#xe9;" horiz-adv-x="567" 
d="M213 279q-57 -105 -57 -164q0 -97 116 -97q52 0 111 30t114.5 80.5t102.5 105t90 114.5q5 7 14.5 20t15 20t12.5 15.5t13 12.5t11 4t11.5 -7t6.5 -14q0 -8 -23 -53t-68.5 -109.5t-102.5 -125.5t-136.5 -104.5t-158.5 -43.5q-91 0 -158.5 45.5t-67.5 126.5q0 83 63 204.5
t152 229.5q106 136 177 136q67 0 116 -42t49 -77q0 -77 -48 -162t-111.5 -139t-110.5 -54q-62 0 -133 48zM242 332q39 -39 80 -39q50 0 116 72q37 43 69 101t32 107q0 52 -41 52q-43 0 -117 -88t-139 -205zM627 991q-60 -41 -126 -95t-101.5 -84t-43.5 -30q-10 0 -18 9
t-8 18q0 23 34 57.5t123 100.5q12 8 40.5 31t49.5 37t31 14q13 0 23 -10t10 -21q0 -19 -14 -27z" />
    <glyph glyph-name="ecircumflex" unicode="&#xea;" horiz-adv-x="567" 
d="M213 279q-57 -105 -57 -164q0 -97 116 -97q52 0 111 30t114.5 80.5t102.5 105t90 114.5q5 7 14.5 20t15 20t12.5 15.5t13 12.5t11 4t11.5 -7t6.5 -14q0 -8 -23 -53t-68.5 -109.5t-102.5 -125.5t-136.5 -104.5t-158.5 -43.5q-91 0 -158.5 45.5t-67.5 126.5q0 83 63 204.5
t152 229.5q106 136 177 136q67 0 116 -42t49 -77q0 -77 -48 -162t-111.5 -139t-110.5 -54q-62 0 -133 48zM242 332q39 -39 80 -39q50 0 116 72q37 43 69 101t32 107q0 52 -41 52q-43 0 -117 -88t-139 -205zM479 944q-55 -38 -115 -87.5t-92 -76t-39 -26.5q-10 0 -17 7.5
t-7 18.5q0 24 34.5 58.5t123.5 99.5q10 7 38.5 30.5t49 37.5t30.5 14q13 0 23 -10q10 -9 22.5 -27t30.5 -49.5t23 -38.5q5 -9 13 -21.5t12.5 -20t9 -16t6.5 -15t2 -11.5q0 -13 -9 -27t-22 -14q-5 0 -9 3.5t-12 16.5t-17.5 29.5t-31 51t-47.5 73.5z" />
    <glyph glyph-name="edieresis" unicode="&#xeb;" horiz-adv-x="567" 
d="M213 279q-57 -105 -57 -164q0 -97 116 -97q52 0 111 30t114.5 80.5t102.5 105t90 114.5q5 7 14.5 20t15 20t12.5 15.5t13 12.5t11 4t11.5 -7t6.5 -14q0 -8 -23 -53t-68.5 -109.5t-102.5 -125.5t-136.5 -104.5t-158.5 -43.5q-91 0 -158.5 45.5t-67.5 126.5q0 83 63 204.5
t152 229.5q106 136 177 136q67 0 116 -42t49 -77q0 -77 -48 -162t-111.5 -139t-110.5 -54q-62 0 -133 48zM242 332q39 -39 80 -39q50 0 116 72q37 43 69 101t32 107q0 52 -41 52q-43 0 -117 -88t-139 -205zM573 797q-23 0 -42 19t-19 42q0 47 35 83t80 36q51 0 51 -70
q0 -39 -24.5 -74.5t-80.5 -35.5zM322 786q-35 0 -56.5 16t-21.5 42q0 32 32.5 75.5t73.5 43.5q32 0 48 -20.5t16 -49.5q0 -40 -29.5 -73.5t-62.5 -33.5z" />
    <glyph glyph-name="igrave" unicode="&#xec;" horiz-adv-x="329" 
d="M199 -23q-20 0 -50.5 11t-52.5 26q-53 35 -53 109q0 85 86 274q54 127 79 165t52 38q26 0 44 -16.5t18 -38.5q0 -10 -28 -64t-61.5 -117t-61.5 -140t-28 -128q0 -32 6.5 -46.5t30.5 -14.5q79 0 238 252q4 6 24 38t36 53t24 21q6 0 11 -8t5 -20q0 -13 -12 -42t-21 -42
q-171 -310 -286 -310zM289 719q-12 0 -26 23t-50.5 89t-83.5 134q-4 6 -4 18t10 22.5t23 10.5q11 0 25.5 -17.5t37 -56.5t29.5 -49q69 -110 69 -135q0 -13 -8.5 -26t-21.5 -13z" />
    <glyph glyph-name="iacute" unicode="&#xed;" horiz-adv-x="329" 
d="M199 -23q-20 0 -50.5 11t-52.5 26q-53 35 -53 109q0 85 86 274q54 127 79 165t52 38q26 0 44 -16.5t18 -38.5q0 -10 -28 -64t-61.5 -117t-61.5 -140t-28 -128q0 -32 6.5 -46.5t30.5 -14.5q79 0 238 252q4 6 24 38t36 53t24 21q6 0 11 -8t5 -20q0 -13 -12 -42t-21 -42
q-171 -310 -286 -310zM446 891q-61 -40 -126 -94t-101 -84.5t-45 -30.5t-16.5 9t-7.5 20q0 24 34 58t123 99q9 6 39 30t51 38t31 14q13 0 22 -10t9 -22q0 -14 -13 -27z" />
    <glyph glyph-name="icircumflex" unicode="&#xee;" horiz-adv-x="329" 
d="M199 -23q-20 0 -50.5 11t-52.5 26q-53 35 -53 109q0 85 86 274q54 127 79 165t52 38q26 0 44 -16.5t18 -38.5q0 -10 -28 -64t-61.5 -117t-61.5 -140t-28 -128q0 -32 6.5 -46.5t30.5 -14.5q79 0 238 252q4 6 24 38t36 53t24 21q6 0 11 -8t5 -20q0 -13 -12 -42t-21 -42
q-171 -310 -286 -310zM326 864q-55 -38 -115 -87.5t-92 -76t-39 -26.5q-10 0 -17.5 7.5t-7.5 18.5q0 24 34.5 58.5t123.5 99.5q10 7 39 30.5t49.5 37.5t30.5 14q12 0 22 -10q10 -9 22.5 -27t30.5 -49.5t23 -38.5q5 -9 13 -21.5t12.5 -20t9 -16t6.5 -15t2 -11.5q0 -13 -9 -27
t-22 -14q-5 0 -9 3.5t-11.5 16.5t-17 29.5t-31 51t-47.5 73.5z" />
    <glyph glyph-name="idieresis" unicode="&#xef;" horiz-adv-x="329" 
d="M199 -23q-20 0 -50.5 11t-52.5 26q-53 35 -53 109q0 85 86 274q54 127 79 165t52 38q26 0 44 -16.5t18 -38.5q0 -10 -28 -64t-61.5 -117t-61.5 -140t-28 -128q0 -32 6.5 -46.5t30.5 -14.5q79 0 238 252q4 6 24 38t36 53t24 21q6 0 11 -8t5 -20q0 -13 -12 -42t-21 -42
q-171 -310 -286 -310zM408 758q-23 0 -41.5 18t-18.5 41q0 47 35 83t80 36q51 0 51 -70q0 -39 -25 -73.5t-81 -34.5zM158 745q-35 0 -56.5 16t-21.5 42q0 32 32 75.5t72 43.5q33 0 49.5 -20.5t16.5 -49.5q0 -40 -29.5 -73.5t-62.5 -33.5z" />
    <glyph glyph-name="eth" unicode="&#xf0;" horiz-adv-x="526" 
d="M678 1104l-80 -53q8 -94 8 -152q0 -270 -69 -537q-24 -94 -67.5 -183t-106 -152.5t-123.5 -63.5q-104 0 -150.5 43.5t-46.5 140.5q0 80 56 200.5t130 221.5q90 125 179 125q33 0 60 -30.5t42 -73.5q14 109 14 217q0 137 -4 186q-25 -17 -52 -36t-39.5 -28t-14.5 -9
q-6 0 -6 32q0 20 19.5 39.5t86.5 65.5q-9 68 -22 116t-23.5 66t-18.5 31.5t-8 21.5q0 19 21 19q92 0 127 -203h2q79 55 88 55q4 0 7 -13.5t3 -23.5q0 -16 -12 -22zM375 172q98 198 98 326q0 98 -53 98q-44 0 -109.5 -85t-114.5 -201t-49 -197q0 -101 64 -101q29 0 59.5 22
t52.5 53.5t34.5 52.5t17.5 32z" />
    <glyph glyph-name="ntilde" unicode="&#xf1;" horiz-adv-x="595" 
d="M231 350q205 299 277 299q48 0 77 -24.5t29 -69.5q0 -20 -30.5 -79t-67.5 -124t-67.5 -148.5t-30.5 -146.5q0 -43 26 -43q39 0 103 64q51 51 103 133.5t82 137t40 54.5q16 0 16 -22t-28 -76q-106 -224 -236 -325q-25 -25 -55 -25q-18 0 -40 8t-46.5 24.5t-40.5 49.5
t-16 76q0 59 38.5 162t77.5 186.5t39 95.5l-6 4q-16 0 -80.5 -71.5t-143 -191.5t-114.5 -224q-2 -7 -6.5 -20.5t-6 -17.5t-4.5 -12.5t-6 -10.5t-7 -6.5t-9.5 -5.5t-12.5 -2t-17 -1q-50 0 -50 39q0 32 37 127q16 46 37.5 111t34.5 103.5t29 86t26 74.5t19.5 52.5t14.5 36.5
t7 11q33 0 67 -13.5t34 -37.5q0 -13 -11.5 -39.5t-36 -82t-45.5 -116.5zM637 840q-3 -33 -54.5 -67t-101.5 -34q-34 0 -78.5 31t-62.5 31q-27 0 -66.5 -31t-52.5 -31q-8 0 -8 9q0 12 14 28q34 37 74.5 62.5t75.5 25.5q25 0 73 -29.5t76 -29.5q23 0 56.5 22.5t40.5 22.5
q14 0 14 -10z" />
    <glyph glyph-name="ograve" unicode="&#xf2;" horiz-adv-x="555" 
d="M252 -39q-48 0 -78 6q-65 9 -97 59.5t-32 129.5q0 84 60 211.5t137 232.5q95 131 188 131q17 0 30.5 -8t29.5 -23t24 -20q4 -3 15 -11t14.5 -11t12 -11t12 -14t9 -16.5t7.5 -22t4 -27.5t2 -35q0 -68 -28 -164.5t-73 -187.5t-109 -155t-128 -64zM395 180q51 107 77 187.5
t26 156.5q0 103 -56 103q-46 0 -115 -89.5t-120 -211.5t-51 -207q0 -107 65 -107q31 0 63.5 23.5t56 56.5t36.5 55t18 33zM442 811q-8 0 -16.5 9.5t-21 32.5t-27 51t-42.5 74t-61 93q-4 6 -4 19t10.5 23.5t24.5 10.5q8 0 17 -8t19.5 -23.5t19.5 -30.5t21 -35.5t19 -31.5
q74 -115 74 -141q0 -15 -9.5 -29t-23.5 -14z" />
    <glyph glyph-name="oacute" unicode="&#xf3;" horiz-adv-x="555" 
d="M252 -39q-48 0 -78 6q-65 9 -97 59.5t-32 129.5q0 84 60 211.5t137 232.5q95 131 188 131q17 0 30.5 -8t29.5 -23t24 -20q4 -3 15 -11t14.5 -11t12 -11t12 -14t9 -16.5t7.5 -22t4 -27.5t2 -35q0 -68 -28 -164.5t-73 -187.5t-109 -155t-128 -64zM395 180q51 107 77 187.5
t26 156.5q0 103 -56 103q-46 0 -115 -89.5t-120 -211.5t-51 -207q0 -107 65 -107q31 0 63.5 23.5t56 56.5t36.5 55t18 33zM649 1040q-64 -43 -132.5 -99.5t-105.5 -88t-46 -31.5q-10 0 -18.5 9t-8.5 20q0 25 36 61.5t130 104.5q8 6 40.5 32t54 40t32.5 14q13 0 23 -10.5
t10 -22.5q0 -17 -15 -29z" />
    <glyph glyph-name="ocircumflex" unicode="&#xf4;" horiz-adv-x="555" 
d="M252 -39q-48 0 -78 6q-65 9 -97 59.5t-32 129.5q0 84 60 211.5t137 232.5q95 131 188 131q17 0 30.5 -8t29.5 -23t24 -20q4 -3 15 -11t14.5 -11t12 -11t12 -14t9 -16.5t7.5 -22t4 -27.5t2 -35q0 -68 -28 -164.5t-73 -187.5t-109 -155t-128 -64zM395 180q51 107 77 187.5
t26 156.5q0 103 -56 103q-46 0 -115 -89.5t-120 -211.5t-51 -207q0 -107 65 -107q31 0 63.5 23.5t56 56.5t36.5 55t18 33zM489 1012q-57 -40 -120 -92t-96.5 -80.5t-41.5 -28.5q-10 0 -18 9t-8 20q0 25 36 61.5t130 104.5q8 6 40.5 32t54 40t32.5 14t22 -11
q11 -10 24.5 -29.5t31 -50t24.5 -40.5q45 -74 45 -89t-9.5 -29t-23.5 -14q-5 0 -9 4t-12.5 17.5t-18.5 31t-32.5 53.5t-50.5 77z" />
    <glyph glyph-name="otilde" unicode="&#xf5;" horiz-adv-x="555" 
d="M252 -39q-48 0 -78 6q-65 9 -97 59.5t-32 129.5q0 84 60 211.5t137 232.5q95 131 188 131q17 0 30.5 -8t29.5 -23t24 -20q4 -3 15 -11t14.5 -11t12 -11t12 -14t9 -16.5t7.5 -22t4 -27.5t2 -35q0 -68 -28 -164.5t-73 -187.5t-109 -155t-128 -64zM395 180q51 107 77 187.5
t26 156.5q0 103 -56 103q-46 0 -115 -89.5t-120 -211.5t-51 -207q0 -107 65 -107q31 0 63.5 23.5t56 56.5t36.5 55t18 33zM686 918q-3 -36 -57 -71.5t-107 -35.5q-36 0 -82 33t-65 33q-28 0 -70 -33t-55 -33q-8 0 -8 8q0 15 14 31q36 39 78.5 65.5t79.5 26.5
q26 0 76.5 -30.5t80.5 -30.5q24 0 59 23.5t42 23.5q14 0 14 -10z" />
    <glyph glyph-name="odieresis" unicode="&#xf6;" horiz-adv-x="555" 
d="M252 -39q-48 0 -78 6q-65 9 -97 59.5t-32 129.5q0 84 60 211.5t137 232.5q95 131 188 131q17 0 30.5 -8t29.5 -23t24 -20q4 -3 15 -11t14.5 -11t12 -11t12 -14t9 -16.5t7.5 -22t4 -27.5t2 -35q0 -68 -28 -164.5t-73 -187.5t-109 -155t-128 -64zM395 180q51 107 77 187.5
t26 156.5q0 103 -56 103q-46 0 -115 -89.5t-120 -211.5t-51 -207q0 -107 65 -107q31 0 63.5 23.5t56 56.5t36.5 55t18 33zM584 840q-25 0 -44.5 19t-19.5 44q0 51 36.5 88t84.5 37q53 0 53 -74q0 -41 -25.5 -77.5t-84.5 -36.5zM319 827q-37 0 -59 17t-22 45q0 34 33.5 79.5
t76.5 45.5q34 0 51 -21.5t17 -52.5q0 -42 -31.5 -77.5t-65.5 -35.5z" />
    <glyph glyph-name="divide" unicode="&#xf7;" horiz-adv-x="659" 
d="M301 233q-76 0 -76 58q0 38 33.5 73t65.5 35q31 0 53 -17.5t22 -43.5q0 -19 -33.5 -62t-64.5 -43zM510 805q0 -29 -39.5 -67t-77.5 -38q-30 0 -49.5 15.5t-19.5 44.5q0 33 37 76t75 43q32 0 53 -27.5t21 -46.5zM602 526q-48 -1 -173 -4t-227.5 -5.5t-109.5 -2.5
q-10 0 -17 6t-7 15q0 20 12 36.5t31 16.5q443 14 524 14q18 0 18 -22q0 -19 -15 -36.5t-36 -17.5z" />
    <glyph glyph-name="oslash" unicode="&#xf8;" horiz-adv-x="555" 
d="M158 -31l-27 -53q-22 -42 -42 -85q-9 -20 -12 -24t-9 -4q-10 0 -18.5 18t-8.5 27q0 54 59 152q-55 47 -55 156q0 84 60 211.5t137 232.5q95 131 188 131q17 0 30.5 -8t29.5 -23t24 -20l6 -6q117 190 146 190q8 0 14 -4t6 -10q0 -5 -6.5 -17t-17 -27.5t-13.5 -21.5
q-12 -20 -41 -70t-45 -75q27 -34 27 -107q0 -68 -28 -164.5t-73 -187.5t-109 -155t-128 -64q-48 0 -78 6q-6 2 -16 2zM158 86q75 120 181.5 295t139.5 227q-15 19 -37 19q-46 0 -115 -89.5t-120 -211.5t-51 -207q0 -23 2 -33zM498 524v4q-32 -51 -105 -165t-119 -189
t-88 -151q18 -11 35 -11q31 0 63.5 23.5t56 56.5t36.5 55t18 33q51 107 77 187.5t26 156.5z" />
    <glyph glyph-name="ugrave" unicode="&#xf9;" horiz-adv-x="655" 
d="M403 279l123 262q25 51 64 51q16 0 44 -14t28 -23q0 -14 -46 -96q-176 -311 -176 -430q0 -39 29 -39q77 0 180 143q43 58 79 116.5t50.5 82.5t22.5 24q14 0 14 -20q0 -25 -31.5 -89t-77.5 -133t-108.5 -122t-114.5 -53q-65 0 -89.5 43t-26.5 127q-4 -5 -23.5 -28
t-26.5 -30.5t-25 -26t-29.5 -25.5t-29.5 -17.5t-35.5 -14.5t-37.5 -4q-44 0 -85.5 32t-41.5 87q0 13 3 30t9.5 38.5t12.5 39.5t17.5 46t18.5 44t22 48t20.5 44t21 44.5t18.5 38.5q26 54 43.5 77t30 27t41.5 4q43 0 43 -39q0 -13 -43 -98q-1 -2 -24.5 -44.5t-35 -64.5
t-34 -67.5t-34.5 -75.5t-22 -64.5t-10 -56.5q0 -21 10 -33t23 -12q52 0 122.5 87.5t116.5 183.5zM426 680q-12 0 -25.5 23.5t-50.5 90t-84 134.5q-4 6 -4 18t10.5 22.5t22.5 10.5q8 0 17 -7.5t19 -22.5t18.5 -29t20 -34t17.5 -30q70 -108 70 -135q0 -14 -8.5 -27.5
t-22.5 -13.5z" />
    <glyph glyph-name="uacute" unicode="&#xfa;" horiz-adv-x="655" 
d="M403 279l123 262q25 51 64 51q16 0 44 -14t28 -23q0 -14 -46 -96q-176 -311 -176 -430q0 -39 29 -39q77 0 180 143q43 58 79 116.5t50.5 82.5t22.5 24q14 0 14 -20q0 -25 -31.5 -89t-77.5 -133t-108.5 -122t-114.5 -53q-65 0 -89.5 43t-26.5 127q-4 -5 -23.5 -28
t-26.5 -30.5t-25 -26t-29.5 -25.5t-29.5 -17.5t-35.5 -14.5t-37.5 -4q-44 0 -85.5 32t-41.5 87q0 13 3 30t9.5 38.5t12.5 39.5t17.5 46t18.5 44t22 48t20.5 44t21 44.5t18.5 38.5q26 54 43.5 77t30 27t41.5 4q43 0 43 -39q0 -13 -43 -98q-1 -2 -24.5 -44.5t-35 -64.5
t-34 -67.5t-34.5 -75.5t-22 -64.5t-10 -56.5q0 -21 10 -33t23 -12q52 0 122.5 87.5t116.5 183.5zM649 874q-60 -41 -125 -95t-100 -83.5t-45 -29.5q-9 0 -17 8.5t-8 17.5q0 24 34.5 58.5t123.5 99.5q9 7 38.5 30.5t50.5 37.5t32 14q12 0 21.5 -10t9.5 -21q0 -18 -15 -27z
" />
    <glyph glyph-name="ucircumflex" unicode="&#xfb;" horiz-adv-x="655" 
d="M403 279l123 262q25 51 64 51q16 0 44 -14t28 -23q0 -14 -46 -96q-176 -311 -176 -430q0 -39 29 -39q77 0 180 143q43 58 79 116.5t50.5 82.5t22.5 24q14 0 14 -20q0 -25 -31.5 -89t-77.5 -133t-108.5 -122t-114.5 -53q-65 0 -89.5 43t-26.5 127q-4 -5 -23.5 -28
t-26.5 -30.5t-25 -26t-29.5 -25.5t-29.5 -17.5t-35.5 -14.5t-37.5 -4q-44 0 -85.5 32t-41.5 87q0 13 3 30t9.5 38.5t12.5 39.5t17.5 46t18.5 44t22 48t20.5 44t21 44.5t18.5 38.5q26 54 43.5 77t30 27t41.5 4q43 0 43 -39q0 -13 -43 -98q-1 -2 -24.5 -44.5t-35 -64.5
t-34 -67.5t-34.5 -75.5t-22 -64.5t-10 -56.5q0 -21 10 -33t23 -12q52 0 122.5 87.5t116.5 183.5zM485 881q-54 -38 -113 -87.5t-91 -76.5t-39 -27q-10 0 -18.5 9t-8.5 20q0 24 34 57.5t124 97.5q7 5 23.5 18.5t28.5 22.5t26.5 19.5t25 16t17.5 5.5q10 0 22 -8
q10 -10 23 -29.5t28.5 -45.5t24.5 -39q5 -8 13 -21.5t12 -20.5t9 -16t7 -15t2 -11q0 -15 -9.5 -28t-23.5 -13q-5 0 -8.5 3.5t-11 16t-17.5 29.5t-31.5 50.5t-48.5 72.5z" />
    <glyph glyph-name="udieresis" unicode="&#xfc;" horiz-adv-x="655" 
d="M403 279l123 262q25 51 64 51q16 0 44 -14t28 -23q0 -14 -46 -96q-176 -311 -176 -430q0 -39 29 -39q77 0 180 143q43 58 79 116.5t50.5 82.5t22.5 24q14 0 14 -20q0 -25 -31.5 -89t-77.5 -133t-108.5 -122t-114.5 -53q-65 0 -89.5 43t-26.5 127q-4 -5 -23.5 -28
t-26.5 -30.5t-25 -26t-29.5 -25.5t-29.5 -17.5t-35.5 -14.5t-37.5 -4q-44 0 -85.5 32t-41.5 87q0 13 3 30t9.5 38.5t12.5 39.5t17.5 46t18.5 44t22 48t20.5 44t21 44.5t18.5 38.5q26 54 43.5 77t30 27t41.5 4q43 0 43 -39q0 -13 -43 -98q-1 -2 -24.5 -44.5t-35 -64.5
t-34 -67.5t-34.5 -75.5t-22 -64.5t-10 -56.5q0 -21 10 -33t23 -12q52 0 122.5 87.5t116.5 183.5zM575 719q-23 0 -41 19t-18 42q0 47 34.5 83t80.5 36q49 0 49 -70q0 -39 -24.5 -74.5t-80.5 -35.5zM326 709q-35 0 -56.5 15.5t-21.5 41.5q0 32 31.5 75.5t72.5 43.5
q33 0 48.5 -20.5t15.5 -49.5q0 -41 -28.5 -73.5t-61.5 -32.5z" />
    <glyph glyph-name="yacute" unicode="&#xfd;" horiz-adv-x="534" 
d="M276 -174l68 274q-29 -43 -78 -81.5t-88 -38.5q-47 0 -88 37.5t-41 93.5q0 59 33.5 158t81.5 196q5 11 13 28t12.5 26t11 21t11.5 18.5t11.5 13.5t13.5 9.5t15 2.5q13 0 36 -19t23 -28q0 -7 -131 -297q-1 -3 -9.5 -24.5t-12.5 -33.5t-10.5 -32.5t-9.5 -39.5t-3 -36
q0 -35 33 -35q63 0 129.5 75.5t126.5 215.5l115 270q20 47 33.5 58.5t35.5 11.5q14 0 30.5 -12.5t16.5 -22.5q0 -6 -135 -336q-35 -83 -63.5 -177.5t-61 -218.5t-49.5 -184q-20 -60 -87 -101.5t-118 -41.5q-45 0 -96 30.5t-87 70t-60.5 74.5t-24.5 46q0 6 5 12.5t16 6.5
q9 0 27.5 -19.5t43 -47t53 -54.5t64.5 -46.5t70 -19.5q47 0 70.5 43t53.5 154zM621 901q-60 -41 -126 -95t-101.5 -84t-43.5 -30q-10 0 -17 8.5t-7 18.5q0 25 34 60t123 98q7 6 23 18.5t28 22t26 19.5t24.5 15.5t17.5 5.5q13 0 23 -9t10 -21q0 -16 -14 -27z" />
    <glyph glyph-name="thorn" unicode="&#xfe;" horiz-adv-x="565" 
d="M115 45q-72 -191 -142 -453q-12 -44 -26.5 -58.5t-46.5 -14.5q-45 0 -45 41q0 20 42 153.5t83 245.5q158 432 356 965q19 50 35.5 98.5t24 72t15 43t13 25.5t12.5 6q94 0 94 -45q0 -47 -233 -567q55 69 110.5 111.5t96.5 42.5q65 0 105 -55.5t40 -114.5q0 -70 -63 -199.5
t-137 -232.5q-40 -58 -97.5 -104t-105.5 -46q-44 0 -78 25t-53 61zM137 109q28 -78 76 -78q63 0 137 94t121 212t47 195q0 35 -13 63t-40 28q-68 0 -170 -175q-4 -7 -6 -10q-77 -137 -152 -329z" />
    <glyph glyph-name="ydieresis" unicode="&#xff;" horiz-adv-x="534" 
d="M276 -174l68 274q-29 -43 -78 -81.5t-88 -38.5q-47 0 -88 37.5t-41 93.5q0 59 33.5 158t81.5 196q5 11 13 28t12.5 26t11 21t11.5 18.5t11.5 13.5t13.5 9.5t15 2.5q13 0 36 -19t23 -28q0 -7 -131 -297q-1 -3 -9.5 -24.5t-12.5 -33.5t-10.5 -32.5t-9.5 -39.5t-3 -36
q0 -35 33 -35q63 0 129.5 75.5t126.5 215.5l115 270q20 47 33.5 58.5t35.5 11.5q14 0 30.5 -12.5t16.5 -22.5q0 -6 -135 -336q-35 -83 -63.5 -177.5t-61 -218.5t-49.5 -184q-20 -60 -87 -101.5t-118 -41.5q-45 0 -96 30.5t-87 70t-60.5 74.5t-24.5 46q0 6 5 12.5t16 6.5
q9 0 27.5 -19.5t43 -47t53 -54.5t64.5 -46.5t70 -19.5q47 0 70.5 43t53.5 154zM580 780q-23 0 -41.5 18.5t-18.5 41.5q0 49 34.5 83.5t80.5 34.5q49 0 49 -69q0 -24 -7.5 -46.5t-32.5 -42.5t-64 -20zM330 768q-35 0 -56.5 16.5t-21.5 42.5q0 32 31.5 75.5t72.5 43.5
q33 0 48.5 -20.5t15.5 -51.5q0 -39 -29.5 -72.5t-60.5 -33.5z" />
    <glyph glyph-name="Amacron" unicode="&#x100;" horiz-adv-x="1136" 
d="M967 444q-198 -16 -447 -71q-124 -185 -203 -328l-15 -30t-13.5 -26.5t-11 -18.5t-12.5 -13.5t-13 -3.5q-17 0 -27 20t-10 41q0 44 68 150q94 152 116 184q-349 -74 -354 -74q-29 0 -29 19q0 35 180 81q8 2 11 3q51 15 252 65q38 57 225.5 327.5t292.5 438.5q2 3 15.5 25
t19.5 30.5t19.5 27.5t22.5 28.5t21.5 21t24.5 16.5t24 5q42 0 75.5 -8.5t33.5 -22.5q0 -40 -14 -112q-52 -268 -101 -589t-49 -476q0 -49 1.5 -84t3 -50.5t1.5 -17.5q0 -15 -13 -25t-22 -10q-21 0 -51 14t-33 25q-14 54 -14 119q0 60 25 319zM979 537q47 387 90 610
q-61 -67 -203 -264.5t-284 -413.5q226 44 397 68zM1321 1466q-339 -12 -414 -12q-24 0 -24 21q0 19 12 36t31 17q380 12 426 12q20 0 20 -20q0 -18 -16 -36t-35 -18z" />
    <glyph glyph-name="amacron" unicode="&#x101;" 
d="M397 135q-12 -18 -29.5 -39.5t-49 -55t-69.5 -55.5t-73 -22q-66 0 -99.5 39t-33.5 86q0 65 26.5 132t77.5 161q61 112 155.5 213.5t148.5 101.5q55 0 96 -31.5t45 -101.5q17 0 40 -16.5t23 -24.5q0 -15 -34 -76q-45 -74 -101.5 -215.5t-56.5 -195.5q0 -35 29 -35
q84 0 213 188q11 15 41.5 64t51.5 77.5t29 28.5q11 0 11 -20q0 -21 -54 -117t-116 -170q-90 -108 -170 -108q-53 0 -79 44t-26 105q0 31 4 43zM471 375q-14 0 -14 16q0 6 17.5 40.5t35.5 79.5t18 77q0 28 -22 28q-49 0 -139.5 -103t-163 -240t-72.5 -220q0 -19 11.5 -32
t31.5 -13q42 0 105.5 62.5t123.5 162.5q14 23 31 57t27 58t10 27zM641 809q-345 -12 -416 -12q-22 0 -22 20t11.5 36.5t31.5 16.5q81 2 180 5t164 5.5t82 2.5q18 0 18 -21q0 -19 -14.5 -36t-34.5 -17z" />
    <glyph glyph-name="Abreve" unicode="&#x102;" horiz-adv-x="1136" 
d="M967 444q-198 -16 -447 -71q-124 -185 -203 -328l-15 -30t-13.5 -26.5t-11 -18.5t-12.5 -13.5t-13 -3.5q-17 0 -27 20t-10 41q0 44 68 150q94 152 116 184q-349 -74 -354 -74q-29 0 -29 19q0 35 180 81q8 2 11 3q51 15 252 65q38 57 225.5 327.5t292.5 438.5q2 3 15.5 25
t19.5 30.5t19.5 27.5t22.5 28.5t21.5 21t24.5 16.5t24 5q42 0 75.5 -8.5t33.5 -22.5q0 -40 -14 -112q-52 -268 -101 -589t-49 -476q0 -49 1.5 -84t3 -50.5t1.5 -17.5q0 -15 -13 -25t-22 -10q-21 0 -51 14t-33 25q-14 54 -14 119q0 60 25 319zM979 537q47 387 90 610
q-61 -67 -203 -264.5t-284 -413.5q226 44 397 68zM1245 1612q24 16 43 16q21 0 36 -11.5t15 -29.5q0 -59 -68 -98t-149 -39q-19 0 -43.5 4t-55.5 13.5t-52 31t-21 51.5q0 25 24 49t58 35q-12 -30 -12 -49q0 -27 27.5 -44t72.5 -17t86.5 17.5t44.5 45.5q0 17 -6 25z" />
    <glyph glyph-name="abreve" unicode="&#x103;" 
d="M397 135q-12 -18 -29.5 -39.5t-49 -55t-69.5 -55.5t-73 -22q-66 0 -99.5 39t-33.5 86q0 65 26.5 132t77.5 161q61 112 155.5 213.5t148.5 101.5q55 0 96 -31.5t45 -101.5q17 0 40 -16.5t23 -24.5q0 -15 -34 -76q-45 -74 -101.5 -215.5t-56.5 -195.5q0 -35 29 -35
q84 0 213 188q11 15 41.5 64t51.5 77.5t29 28.5q11 0 11 -20q0 -21 -54 -117t-116 -170q-90 -108 -170 -108q-53 0 -79 44t-26 105q0 31 4 43zM471 375q-14 0 -14 16q0 6 17.5 40.5t35.5 79.5t18 77q0 28 -22 28q-49 0 -139.5 -103t-163 -240t-72.5 -220q0 -19 11.5 -32
t31.5 -13q42 0 105.5 62.5t123.5 162.5q14 23 31 57t27 58t10 27zM563 934q22 18 43 18q22 0 36.5 -12t14.5 -29q0 -59 -67.5 -99t-147.5 -40q-18 0 -43.5 4t-57 14t-52.5 32t-21 52q0 25 24.5 49t59.5 33q-14 -29 -14 -47q0 -27 28 -45t74 -18q43 0 84.5 18t44.5 47
q0 15 -6 23z" />
    <glyph glyph-name="Aogonek" unicode="&#x104;" horiz-adv-x="1136" 
d="M987 -18q-28 14 -31 24q-14 54 -14 119q0 60 25 319q-198 -16 -447 -71q-124 -185 -203 -328l-15 -30t-13.5 -26.5t-11 -18.5t-12.5 -13.5t-13 -3.5q-17 0 -27 20t-10 41q0 44 68 150q94 152 116 184q-349 -74 -354 -74q-29 0 -29 19q0 35 180 81q8 2 11 3q51 15 252 65
q38 57 225.5 327.5t292.5 438.5q2 3 15.5 25t19.5 30.5t19.5 27.5t22.5 28.5t21.5 21t24.5 16.5t24 5q42 0 75.5 -8.5t33.5 -22.5q0 -40 -14 -112q-52 -268 -101 -589t-49 -476q0 -49 1.5 -84t3 -50.5t1.5 -17.5q0 -15 -13 -25t-22 -10q-6 0 -22 4q-148 -110 -148 -180
q0 -39 48 -39q33 0 60 13t66 47q10 10 21 10q8 0 8 -8q-3 -44 -65 -87.5t-129 -43.5q-34 0 -55 18t-21 49q0 119 184 232zM979 537q47 387 90 610q-61 -67 -203 -264.5t-284 -413.5q226 44 397 68z" />
    <glyph glyph-name="aogonek" unicode="&#x105;" 
d="M487 -57q-47 4 -70.5 47t-23.5 102q0 31 4 43q-12 -18 -29.5 -39.5t-49 -55t-69.5 -55.5t-73 -22q-66 0 -99.5 39t-33.5 86q0 65 26.5 132t77.5 161q61 112 155.5 213.5t148.5 101.5q55 0 96 -31.5t45 -101.5q17 0 40 -16.5t23 -24.5q0 -15 -34 -76
q-45 -74 -101.5 -215.5t-56.5 -195.5q0 -35 29 -35q84 0 213 188q11 15 41.5 64t51.5 77.5t29 28.5q11 0 11 -20q0 -21 -54 -117t-116 -170q-48 -59 -105 -88q-151 -116 -151 -182q0 -39 49 -39q35 0 62.5 12t64.5 45q11 11 18 11q10 0 10 -9q-3 -43 -65 -87t-129 -44
q-35 0 -55.5 19.5t-20.5 50.5q0 103 141 203zM471 375q-14 0 -14 16q0 6 17.5 40.5t35.5 79.5t18 77q0 28 -22 28q-49 0 -139.5 -103t-163 -240t-72.5 -220q0 -19 11.5 -32t31.5 -13q42 0 105.5 62.5t123.5 162.5q14 23 31 57t27 58t10 27z" />
    <glyph glyph-name="Cacute" unicode="&#x106;" horiz-adv-x="897" 
d="M1026 258q-118 -144 -248.5 -237t-259.5 -93q-92 0 -174.5 37t-136 107t-53.5 157q0 134 91.5 332t230 386t282.5 315q160 135 252 135q77 0 154 -63t77 -150q0 -55 -34 -132.5t-78.5 -141t-87 -109t-60.5 -45.5q-19 0 -25 7.5t-6 27.5q0 36 29 97t64.5 117t64.5 120
t29 106q0 33 -17 60.5t-51 27.5q-56 0 -139 -58t-170 -151.5t-175 -215.5t-156.5 -245t-111.5 -244.5t-43 -209.5q0 -61 15.5 -101.5t46.5 -61t66 -28.5t85 -8q84 0 167 37t192 131q62 53 112.5 107t71 79t27.5 25q16 0 16 -23q0 -28 -47 -94zM1192 1677q-60 -41 -125 -95
t-100 -84t-45 -30q-9 0 -17 9.5t-8 19.5q0 24 34.5 58.5t123.5 97.5q7 6 23 18.5t28 22t26 20t25.5 16t18.5 5.5q12 0 21 -9.5t9 -21.5q0 -16 -14 -27z" />
    <glyph glyph-name="cacute" unicode="&#x107;" horiz-adv-x="481" 
d="M659 373q0 -10 -14.5 -42.5t-40 -79t-64 -96.5t-82.5 -93t-101 -71t-113 -28q-87 0 -144 44t-57 126q0 60 31.5 143.5t77.5 155.5q22 34 51.5 74.5t69 87.5t79.5 77.5t68 30.5q46 0 88 -30q51 -41 51 -82q0 -48 -42 -141t-77 -93q-41 0 -41 41q0 27 38 108t38 93
q0 14 -8 14q-40 0 -123.5 -99t-130.5 -189q-23 -47 -35 -73t-23.5 -67.5t-11.5 -77.5q0 -47 28.5 -72.5t70.5 -25.5q76 0 151.5 70t186.5 223q61 88 69 88q10 0 10 -16zM584 987q-60 -41 -126 -95t-101.5 -84t-43.5 -30q-10 0 -17 8.5t-7 18.5q0 24 34 58.5t123 99.5
q7 6 23 18.5t28 22t26 19.5t24.5 15.5t17.5 5.5q13 0 23 -9t10 -21q0 -19 -14 -27z" />
    <glyph glyph-name="Ccircumflex" unicode="&#x108;" horiz-adv-x="897" 
d="M1026 258q-118 -144 -248.5 -237t-259.5 -93q-92 0 -174.5 37t-136 107t-53.5 157q0 134 91.5 332t230 386t282.5 315q160 135 252 135q77 0 154 -63t77 -150q0 -55 -34 -132.5t-78.5 -141t-87 -109t-60.5 -45.5q-19 0 -25 7.5t-6 27.5q0 36 29 97t64.5 117t64.5 120
t29 106q0 33 -17 60.5t-51 27.5q-56 0 -139 -58t-170 -151.5t-175 -215.5t-156.5 -245t-111.5 -244.5t-43 -209.5q0 -61 15.5 -101.5t46.5 -61t66 -28.5t85 -8q84 0 167 37t192 131q62 53 112.5 107t71 79t27.5 25q16 0 16 -23q0 -28 -47 -94zM1028 1657
q-55 -38 -114.5 -87.5t-92 -76.5t-39.5 -27q-10 0 -17 9t-7 20q0 24 33.5 58.5t121.5 99.5q11 8 40 30.5t50 36t31 13.5q14 0 23 -9q10 -10 23 -29.5t28.5 -45.5t24.5 -39q5 -8 13 -21.5t12 -20.5t9 -16t7 -15t2 -11q0 -15 -9 -28t-22 -13q-5 0 -9 3.5t-12 16.5t-17.5 29.5
t-31 50.5t-47.5 72z" />
    <glyph glyph-name="ccircumflex" unicode="&#x109;" horiz-adv-x="481" 
d="M659 373q0 -10 -14.5 -42.5t-40 -79t-64 -96.5t-82.5 -93t-101 -71t-113 -28q-87 0 -144 44t-57 126q0 60 31.5 143.5t77.5 155.5q22 34 51.5 74.5t69 87.5t79.5 77.5t68 30.5q46 0 88 -30q51 -41 51 -82q0 -48 -42 -141t-77 -93q-41 0 -41 41q0 27 38 108t38 93
q0 14 -8 14q-40 0 -123.5 -99t-130.5 -189q-23 -47 -35 -73t-23.5 -67.5t-11.5 -77.5q0 -47 28.5 -72.5t70.5 -25.5q76 0 151.5 70t186.5 223q61 88 69 88q10 0 10 -16zM467 954q-55 -38 -114.5 -87t-91.5 -76t-40 -27q-9 0 -16.5 9t-7.5 20q0 24 34 58t123 99
q8 5 38.5 29.5t51 37.5t31.5 13q13 0 21 -8q11 -10 23.5 -29t29 -48t22.5 -38q43 -67 43 -84q0 -15 -8.5 -28t-21.5 -13q-5 0 -9 3.5t-12 16.5t-17.5 29.5t-31 50.5t-47.5 72z" />
    <glyph glyph-name="Cdotaccent" unicode="&#x10a;" horiz-adv-x="897" 
d="M1026 258q-118 -144 -248.5 -237t-259.5 -93q-92 0 -174.5 37t-136 107t-53.5 157q0 134 91.5 332t230 386t282.5 315q160 135 252 135q77 0 154 -63t77 -150q0 -55 -34 -132.5t-78.5 -141t-87 -109t-60.5 -45.5q-19 0 -25 7.5t-6 27.5q0 36 29 97t64.5 117t64.5 120
t29 106q0 33 -17 60.5t-51 27.5q-56 0 -139 -58t-170 -151.5t-175 -215.5t-156.5 -245t-111.5 -244.5t-43 -209.5q0 -61 15.5 -101.5t46.5 -61t66 -28.5t85 -8q84 0 167 37t192 131q62 53 112.5 107t71 79t27.5 25q16 0 16 -23q0 -28 -47 -94zM934 1477q-30 0 -50 19.5
t-20 51.5q0 42 41 93t92 51q20 0 31.5 -20.5t11.5 -43.5q0 -53 -38 -102t-68 -49z" />
    <glyph glyph-name="cdotaccent" unicode="&#x10b;" horiz-adv-x="481" 
d="M659 373q0 -10 -14.5 -42.5t-40 -79t-64 -96.5t-82.5 -93t-101 -71t-113 -28q-87 0 -144 44t-57 126q0 60 31.5 143.5t77.5 155.5q22 34 51.5 74.5t69 87.5t79.5 77.5t68 30.5q46 0 88 -30q51 -41 51 -82q0 -48 -42 -141t-77 -93q-41 0 -41 41q0 27 38 108t38 93
q0 14 -8 14q-40 0 -123.5 -99t-130.5 -189q-23 -47 -35 -73t-23.5 -67.5t-11.5 -77.5q0 -47 28.5 -72.5t70.5 -25.5q76 0 151.5 70t186.5 223q61 88 69 88q10 0 10 -16zM356 778q-30 0 -49.5 20t-19.5 52q0 42 41 92.5t92 50.5q19 0 31 -20t12 -43q0 -53 -38.5 -102.5
t-68.5 -49.5z" />
    <glyph glyph-name="Ccaron" unicode="&#x10c;" horiz-adv-x="897" 
d="M1026 258q-118 -144 -248.5 -237t-259.5 -93q-92 0 -174.5 37t-136 107t-53.5 157q0 134 91.5 332t230 386t282.5 315q160 135 252 135q77 0 154 -63t77 -150q0 -55 -34 -132.5t-78.5 -141t-87 -109t-60.5 -45.5q-19 0 -25 7.5t-6 27.5q0 36 29 97t64.5 117t64.5 120
t29 106q0 33 -17 60.5t-51 27.5q-56 0 -139 -58t-170 -151.5t-175 -215.5t-156.5 -245t-111.5 -244.5t-43 -209.5q0 -61 15.5 -101.5t46.5 -61t66 -28.5t85 -8q84 0 167 37t192 131q62 53 112.5 107t71 79t27.5 25q16 0 16 -23q0 -28 -47 -94zM958 1546q55 38 115 88
t92 76.5t39 26.5q10 0 17.5 -8t7.5 -19q0 -24 -34.5 -58.5t-123.5 -99.5q-10 -7 -39 -30.5t-49.5 -37.5t-30.5 -14q-11 0 -22 11q-10 9 -22.5 26.5t-31.5 50t-22 37.5q-5 9 -13 21.5t-12.5 20t-9 16t-6.5 15t-2 11.5q0 13 9 27t22 14q5 0 9 -3.5t11.5 -16.5t17 -29.5t31 -51
t47.5 -73.5z" />
    <glyph glyph-name="ccaron" unicode="&#x10d;" horiz-adv-x="481" 
d="M659 373q0 -10 -14.5 -42.5t-40 -79t-64 -96.5t-82.5 -93t-101 -71t-113 -28q-87 0 -144 44t-57 126q0 60 31.5 143.5t77.5 155.5q22 34 51.5 74.5t69 87.5t79.5 77.5t68 30.5q46 0 88 -30q51 -41 51 -82q0 -48 -42 -141t-77 -93q-41 0 -41 41q0 27 38 108t38 93
q0 14 -8 14q-40 0 -123.5 -99t-130.5 -189q-23 -47 -35 -73t-23.5 -67.5t-11.5 -77.5q0 -47 28.5 -72.5t70.5 -25.5q76 0 151.5 70t186.5 223q61 88 69 88q10 0 10 -16zM369 842q55 38 114.5 87.5t91.5 76t39 26.5q11 0 19 -8t8 -18q0 -23 -34.5 -57.5t-123.5 -100.5
q-12 -8 -40.5 -31t-49.5 -37t-31 -14q-12 0 -22 10q-10 9 -23 28.5t-28.5 46.5t-24.5 40q-5 9 -13 21.5t-12.5 20t-9 16t-6.5 15t-2 11.5q0 13 9 27t22 14q5 0 9 -3.5t12 -16.5t17.5 -29.5t31 -51t47.5 -73.5z" />
    <glyph glyph-name="Dcaron" unicode="&#x10e;" horiz-adv-x="1130" 
d="M582 1204q-56 -12 -158 -34.5t-151.5 -32t-71.5 -9.5q-82 0 -82 25q0 38 151 72q46 11 148 36.5t141.5 34.5t116.5 25.5t122 23t105 12t115 5.5q138 0 221 -38.5t145 -127.5q62 -83 62 -184q0 -222 -318 -596q-99 -117 -246.5 -227t-314.5 -183.5t-295 -73.5
q-27 0 -66.5 46.5t-39.5 70.5q0 28 29 123t57 168q186 528 330 864zM737 1233q-155 -348 -227 -525t-166 -432q-61 -161 -61 -217q0 -39 49 -39q43 0 120 27t174.5 77.5t209 141t200.5 199.5q119 145 205 308t86 298q0 36 -6 64.5t-19 48.5t-27 35t-36.5 24t-39.5 14
t-45 7.5t-44.5 3t-44.5 0.5q-127 0 -328 -35zM891 1513q55 38 114.5 88t91.5 76.5t40 26.5q9 0 16.5 -8.5t7.5 -18.5q0 -24 -34 -58t-123 -99q-9 -7 -38.5 -30.5t-50.5 -37.5t-32 -14t-21 10q-11 9 -23.5 27.5t-30 48.5t-22.5 39q-43 67 -43 84q0 13 9 27t22 14q5 0 9 -4
t12 -17t17.5 -30t31 -51t47.5 -73z" />
    <glyph glyph-name="dcaron" unicode="&#x10f;" horiz-adv-x="870" 
d="M399 125q-3 -3 -27 -34t-38 -45.5t-39 -38t-49.5 -34t-48.5 -10.5q-59 0 -106.5 38.5t-47.5 92.5q0 102 82 262t168 244q2 1 17 16t24.5 22.5t25.5 19t32 17t32 5.5q33 0 77 -25t72 -51q38 78 121 279q12 30 22 58.5t15 45t9.5 31t7 21.5t7 12t9.5 6.5t14 1.5
q28 0 57 -11.5t29 -27.5q0 -25 -60.5 -159t-133 -286t-133 -306.5t-60.5 -215.5q0 -47 29 -47q54 0 127.5 83.5t132.5 195.5q24 42 35.5 57.5t21.5 15.5q13 0 13 -26q0 -24 -38.5 -95.5t-74.5 -123.5q-112 -160 -199 -160q-63 0 -94 49t-31 123zM350 158q74 107 132.5 224
t58.5 157q0 27 -16 45t-38 18q-65 0 -149 -110.5t-139.5 -240t-55.5 -194.5q0 -17 12.5 -28t30.5 -11q70 0 164 140zM1106 862q-10 -11 -31 -34.5t-32.5 -36.5t-29.5 -32.5t-29 -30.5t-24 -22.5t-21.5 -16.5t-14.5 -5q-12 0 -19.5 11.5t-7.5 25.5q0 42 61 113q31 36 58.5 71
t42.5 56t27.5 38t21 24t16.5 7q13 0 31.5 -20.5t18.5 -30.5q0 -20 -13 -44.5t-55 -72.5z" />
    <glyph glyph-name="Dcroat" unicode="&#x110;" horiz-adv-x="1130" 
d="M348 610h-135q-25 0 -25 25q0 9 10.5 23.5t22.5 17.5q31 9 156 12q116 306 205 516q-56 -12 -158 -34.5t-151.5 -32t-71.5 -9.5q-82 0 -82 25q0 38 151 72q46 11 148 36.5t141.5 34.5t116.5 25.5t122 23t105 12t115 5.5q138 0 221 -38.5t145 -127.5q62 -83 62 -184
q0 -222 -318 -596q-99 -117 -246.5 -227t-314.5 -183.5t-295 -73.5q-27 0 -66.5 46.5t-39.5 70.5q0 28 29 123t57 168q59 172 96 270zM737 612h-266q-23 -58 -127 -336q-61 -161 -61 -217q0 -39 49 -39q43 0 120 27t174.5 77.5t209 141t200.5 199.5q119 145 205 308t86 298
q0 36 -6 64.5t-19 48.5t-27 35t-36.5 24t-39.5 14t-45 7.5t-44.5 3t-44.5 0.5q-127 0 -328 -35q-145 -323 -233 -541q196 4 211 4q114 0 114 -32q0 -18 -24.5 -35t-67.5 -17z" />
    <glyph glyph-name="dcroat" unicode="&#x111;" horiz-adv-x="673" 
d="M850 823h-64q-12 -27 -72.5 -156t-88 -191t-69.5 -161.5t-60.5 -162.5t-18.5 -99q0 -47 29 -47q54 0 127.5 83.5t132.5 195.5q24 42 35.5 57.5t21.5 15.5q13 0 13 -26q0 -24 -38.5 -95.5t-74.5 -123.5q-112 -160 -199 -160q-63 0 -94 49t-31 123q-3 -3 -27 -34t-38 -45.5
t-39 -38t-49.5 -34t-48.5 -10.5q-59 0 -106.5 38.5t-47.5 92.5q0 102 82 262t168 244q2 1 17 16t24.5 22.5t25.5 19t32 17t32 5.5q33 0 77 -25t72 -51q67 143 97 219q-182 -2 -275 -2q-20 0 -20 17q0 8 8.5 18.5t19.5 13.5q33 9 291 13q12 30 22 58.5t15 45t9.5 31t7 21.5
t7 12t9.5 6.5t14 1.5q28 0 57 -11.5t29 -27.5q0 -23 -51 -135h18q99 0 99 -25q0 -13 -20.5 -25t-59.5 -12zM350 158q74 107 132.5 224t58.5 157q0 27 -16 45t-38 18q-65 0 -149 -110.5t-139.5 -240t-55.5 -194.5q0 -17 12.5 -28t30.5 -11q70 0 164 140z" />
    <glyph glyph-name="Emacron" unicode="&#x112;" horiz-adv-x="950" 
d="M291 430q-115 -296 -115 -321q0 -16 11 -20.5t36 -4.5q11 0 109 4t224.5 8t205.5 4q127 0 127 -32q0 -12 -15.5 -24t-35.5 -13q-81 -3 -320 -21.5t-330 -34.5q-72 -12 -88 -12q-22 0 -40.5 17t-18.5 38q0 13 5 34.5t14.5 52.5t17.5 54t21.5 61t17.5 50q34 92 90.5 240
t98 258.5t83 225.5t64 193t22.5 111q0 10 10 16.5t27.5 9.5t33.5 4.5t37 2.5t29 2q413 37 676 37q24 0 40.5 -1.5t33 -5.5t25 -13.5t8.5 -24.5q0 -9 -7 -15.5t-23.5 -10t-27.5 -5t-36 -2.5t-31 -2q-393 -37 -586 -67q-21 -4 -32 -7t-19.5 -10.5t-11 -12t-10 -20t-13.5 -26.5
q-85 -152 -264 -602q66 1 210 7.5t189 6.5q67 0 144 -8.5t77 -28.5q0 -47 -112 -47q-58 -1 -173 -10t-141 -10q-81 -4 -237 -25zM1122 1493q-396 -14 -413 -14q-25 0 -25 20t12 36.5t31 16.5q77 2 179 6t165.5 6.5t81.5 2.5q21 0 21 -23q0 -18 -16 -34.5t-36 -16.5z" />
    <glyph glyph-name="emacron" unicode="&#x113;" horiz-adv-x="567" 
d="M213 279q-57 -105 -57 -164q0 -97 116 -97q52 0 111 30t114.5 80.5t102.5 105t90 114.5q5 7 14.5 20t15 20t12.5 15.5t13 12.5t11 4t11.5 -7t6.5 -14q0 -8 -23 -53t-68.5 -109.5t-102.5 -125.5t-136.5 -104.5t-158.5 -43.5q-91 0 -158.5 45.5t-67.5 126.5q0 83 63 204.5
t152 229.5q106 136 177 136q67 0 116 -42t49 -77q0 -77 -48 -162t-111.5 -139t-110.5 -54q-62 0 -133 48zM242 332q39 -39 80 -39q50 0 116 72q37 43 69 101t32 107q0 52 -41 52q-43 0 -117 -88t-139 -205zM637 809q-339 -12 -416 -12q-22 0 -22 20t11.5 36.5t31.5 16.5
q81 2 180 5t164 5.5t82 2.5q18 0 18 -21q0 -19 -14.5 -36t-34.5 -17z" />
    <glyph glyph-name="Ebreve" unicode="&#x114;" horiz-adv-x="950" 
d="M291 430q-115 -296 -115 -321q0 -16 11 -20.5t36 -4.5q11 0 109 4t224.5 8t205.5 4q127 0 127 -32q0 -12 -15.5 -24t-35.5 -13q-81 -3 -320 -21.5t-330 -34.5q-72 -12 -88 -12q-22 0 -40.5 17t-18.5 38q0 13 5 34.5t14.5 52.5t17.5 54t21.5 61t17.5 50q34 92 90.5 240
t98 258.5t83 225.5t64 193t22.5 111q0 10 10 16.5t27.5 9.5t33.5 4.5t37 2.5t29 2q413 37 676 37q24 0 40.5 -1.5t33 -5.5t25 -13.5t8.5 -24.5q0 -9 -7 -15.5t-23.5 -10t-27.5 -5t-36 -2.5t-31 -2q-393 -37 -586 -67q-21 -4 -32 -7t-19.5 -10.5t-11 -12t-10 -20t-13.5 -26.5
q-85 -152 -264 -602q66 1 210 7.5t189 6.5q67 0 144 -8.5t77 -28.5q0 -47 -112 -47q-58 -1 -173 -10t-141 -10q-81 -4 -237 -25zM1055 1610q24 16 43 16q21 0 35 -11.5t14 -29.5q0 -59 -67.5 -98t-147.5 -39q-19 0 -43.5 4t-56.5 13.5t-53 31t-21 51.5q0 24 25 48.5t59 35.5
q-13 -32 -13 -49q0 -27 28 -44t73 -17t86.5 17.5t44.5 45.5q0 17 -6 25z" />
    <glyph glyph-name="ebreve" unicode="&#x115;" horiz-adv-x="567" 
d="M213 279q-57 -105 -57 -164q0 -97 116 -97q52 0 111 30t114.5 80.5t102.5 105t90 114.5q5 7 14.5 20t15 20t12.5 15.5t13 12.5t11 4t11.5 -7t6.5 -14q0 -8 -23 -53t-68.5 -109.5t-102.5 -125.5t-136.5 -104.5t-158.5 -43.5q-91 0 -158.5 45.5t-67.5 126.5q0 83 63 204.5
t152 229.5q106 136 177 136q67 0 116 -42t49 -77q0 -77 -48 -162t-111.5 -139t-110.5 -54q-62 0 -133 48zM242 332q39 -39 80 -39q50 0 116 72q37 43 69 101t32 107q0 52 -41 52q-43 0 -117 -88t-139 -205zM555 932q18 18 43 18q20 0 34.5 -12t14.5 -29q0 -59 -67.5 -99
t-147.5 -40q-18 0 -43.5 4t-57 14t-52.5 32t-21 52q0 25 24.5 49t59.5 33q-12 -25 -12 -47q0 -27 27.5 -45t72.5 -18q44 0 86 18t45 47q0 15 -6 23z" />
    <glyph glyph-name="Edotaccent" unicode="&#x116;" horiz-adv-x="950" 
d="M291 430q-115 -296 -115 -321q0 -16 11 -20.5t36 -4.5q11 0 109 4t224.5 8t205.5 4q127 0 127 -32q0 -12 -15.5 -24t-35.5 -13q-81 -3 -320 -21.5t-330 -34.5q-72 -12 -88 -12q-22 0 -40.5 17t-18.5 38q0 13 5 34.5t14.5 52.5t17.5 54t21.5 61t17.5 50q34 92 90.5 240
t98 258.5t83 225.5t64 193t22.5 111q0 10 10 16.5t27.5 9.5t33.5 4.5t37 2.5t29 2q413 37 676 37q24 0 40.5 -1.5t33 -5.5t25 -13.5t8.5 -24.5q0 -9 -7 -15.5t-23.5 -10t-27.5 -5t-36 -2.5t-31 -2q-393 -37 -586 -67q-21 -4 -32 -7t-19.5 -10.5t-11 -12t-10 -20t-13.5 -26.5
q-85 -152 -264 -602q66 1 210 7.5t189 6.5q67 0 144 -8.5t77 -28.5q0 -47 -112 -47q-58 -1 -173 -10t-141 -10q-81 -4 -237 -25zM928 1458q-30 0 -50 21t-20 53q0 41 41 92t92 51q20 0 31.5 -20t11.5 -43q0 -54 -38 -104t-68 -50z" />
    <glyph glyph-name="edotaccent" unicode="&#x117;" horiz-adv-x="567" 
d="M213 279q-57 -105 -57 -164q0 -97 116 -97q52 0 111 30t114.5 80.5t102.5 105t90 114.5q5 7 14.5 20t15 20t12.5 15.5t13 12.5t11 4t11.5 -7t6.5 -14q0 -8 -23 -53t-68.5 -109.5t-102.5 -125.5t-136.5 -104.5t-158.5 -43.5q-91 0 -158.5 45.5t-67.5 126.5q0 83 63 204.5
t152 229.5q106 136 177 136q67 0 116 -42t49 -77q0 -77 -48 -162t-111.5 -139t-110.5 -54q-62 0 -133 48zM242 332q39 -39 80 -39q50 0 116 72q37 43 69 101t32 107q0 52 -41 52q-43 0 -117 -88t-139 -205zM446 797q-30 0 -49.5 19.5t-19.5 51.5q0 41 42 92.5t93 51.5
q19 0 31 -20.5t12 -43.5q0 -54 -38.5 -102.5t-70.5 -48.5z" />
    <glyph glyph-name="Eogonek" unicode="&#x118;" horiz-adv-x="950" 
d="M838 31l-148 -11q-60 -40 -109 -91t-49 -93q0 -18 14 -28.5t36 -10.5q34 0 61.5 13t65.5 47q11 8 18 8q10 0 10 -6q-3 -44 -65 -87.5t-129 -43.5q-35 0 -55.5 18t-20.5 49q0 113 170 223q-342 -26 -449 -43q-72 -12 -88 -12q-22 0 -40.5 17t-18.5 38q0 13 5 34.5
t14.5 52.5t17.5 54t21.5 61t17.5 50q34 92 90.5 240t98 258.5t83 225.5t64 193t22.5 111q0 10 10 16.5t27.5 9.5t33.5 4.5t37 2.5t29 2q413 37 676 37q24 0 40.5 -1.5t33 -5.5t25 -13.5t8.5 -24.5q0 -9 -7 -15.5t-23.5 -10t-27.5 -5t-36 -2.5t-31 -2q-393 -37 -586 -67
q-21 -4 -32 -7t-19.5 -10.5t-11 -12t-10 -20t-13.5 -26.5q-85 -152 -264 -602q66 1 210 7.5t189 6.5q67 0 144 -8.5t77 -28.5q0 -47 -112 -47q-58 -1 -173 -10t-141 -10q-81 -4 -237 -25q-115 -296 -115 -321q0 -16 11 -20.5t36 -4.5q11 0 109 4t224.5 8t205.5 4
q127 0 127 -32q0 -12 -15.5 -24t-35.5 -13z" />
    <glyph glyph-name="eogonek" unicode="&#x119;" horiz-adv-x="567" 
d="M352 -27q-38 -10 -67 -10q-91 0 -158.5 45.5t-67.5 126.5q0 83 63 204.5t152 229.5q106 136 177 136q67 0 116 -42t49 -77q0 -77 -48 -162t-111.5 -139t-110.5 -54q-62 0 -133 48q-57 -105 -57 -164q0 -97 116 -97q52 0 111 30t114.5 80.5t102.5 105t90 114.5
q5 7 14.5 20t15 20t12.5 15.5t13 12.5t11 4t11.5 -7t6.5 -14q0 -6 -14 -34.5t-42.5 -74t-64.5 -94t-87.5 -98.5t-104.5 -82q-54 -33 -99 -84t-45 -92q0 -39 50 -39q60 0 125 60q11 8 20 8q10 0 10 -6q-3 -44 -65.5 -87.5t-128.5 -43.5q-35 0 -55.5 18t-20.5 49q0 88 100 174
zM242 332q39 -39 80 -39q50 0 116 72q37 43 69 101t32 107q0 52 -41 52q-43 0 -117 -88t-139 -205z" />
    <glyph glyph-name="Ecaron" unicode="&#x11a;" horiz-adv-x="950" 
d="M291 430q-115 -296 -115 -321q0 -16 11 -20.5t36 -4.5q11 0 109 4t224.5 8t205.5 4q127 0 127 -32q0 -12 -15.5 -24t-35.5 -13q-81 -3 -320 -21.5t-330 -34.5q-72 -12 -88 -12q-22 0 -40.5 17t-18.5 38q0 13 5 34.5t14.5 52.5t17.5 54t21.5 61t17.5 50q34 92 90.5 240
t98 258.5t83 225.5t64 193t22.5 111q0 10 10 16.5t27.5 9.5t33.5 4.5t37 2.5t29 2q413 37 676 37q24 0 40.5 -1.5t33 -5.5t25 -13.5t8.5 -24.5q0 -9 -7 -15.5t-23.5 -10t-27.5 -5t-36 -2.5t-31 -2q-393 -37 -586 -67q-21 -4 -32 -7t-19.5 -10.5t-11 -12t-10 -20t-13.5 -26.5
q-85 -152 -264 -602q66 1 210 7.5t189 6.5q67 0 144 -8.5t77 -28.5q0 -47 -112 -47q-58 -1 -173 -10t-141 -10q-81 -4 -237 -25zM903 1518q54 38 113.5 87.5t91 76t39.5 26.5q10 0 18.5 -9t8.5 -18q0 -23 -34 -57.5t-124 -99.5q-7 -5 -23.5 -18.5t-28.5 -22.5t-26.5 -19.5
t-25 -16t-17.5 -5.5q-14 0 -21 10q-11 9 -24 28.5t-29 47t-24 39.5q-3 6 -9 16l-9 15l-7.5 12.5t-6.5 12t-4.5 10.5t-3.5 10t-1 8q0 14 8 27.5t22 13.5q5 0 8.5 -4t11 -16.5t17.5 -30t31.5 -51t48.5 -72.5z" />
    <glyph glyph-name="ecaron" unicode="&#x11b;" horiz-adv-x="567" 
d="M213 279q-57 -105 -57 -164q0 -97 116 -97q52 0 111 30t114.5 80.5t102.5 105t90 114.5q5 7 14.5 20t15 20t12.5 15.5t13 12.5t11 4t11.5 -7t6.5 -14q0 -8 -23 -53t-68.5 -109.5t-102.5 -125.5t-136.5 -104.5t-158.5 -43.5q-91 0 -158.5 45.5t-67.5 126.5q0 83 63 204.5
t152 229.5q106 136 177 136q67 0 116 -42t49 -77q0 -77 -48 -162t-111.5 -139t-110.5 -54q-62 0 -133 48zM242 332q39 -39 80 -39q50 0 116 72q37 43 69 101t32 107q0 52 -41 52q-43 0 -117 -88t-139 -205zM408 850q54 38 113 87.5t90.5 76t39.5 26.5q11 0 19 -8t8 -18
q0 -24 -34.5 -58.5t-123.5 -99.5q-9 -6 -39 -30t-51 -38t-31 -14q-12 0 -22 10q-10 9 -23 28.5t-28.5 46.5t-24.5 40q-5 9 -13 21.5t-12.5 20t-9 16t-6.5 15t-2 11.5q0 14 9.5 27.5t23.5 13.5q5 0 8.5 -4t11 -16.5t17.5 -30t31.5 -51t48.5 -72.5z" />
    <glyph glyph-name="Gcircumflex" unicode="&#x11c;" horiz-adv-x="1193" 
d="M1096 471q24 -16 30.5 -33t6.5 -43q0 -31 -15 -64t-29 -51.5t-42 -52.5q-58 -58 -108.5 -102.5t-123.5 -98.5t-148.5 -84t-144.5 -30q-85 0 -170.5 41.5t-141.5 112t-56 145.5q0 80 26.5 170.5t77 187.5t102.5 180.5t125 186.5q35 51 99 125t146 156t170.5 139t150.5 57
q48 0 83.5 -18t73.5 -52q84 -75 84 -157q0 -56 -54.5 -155t-118 -174t-89.5 -75q-18 0 -27.5 10t-11.5 20.5t-2 27.5q0 37 31 94.5t68.5 107t68.5 104t31 87.5q0 16 -2.5 28.5t-11.5 29.5t-31 26.5t-56 9.5q-50 0 -147 -76.5t-206.5 -202.5t-210 -271t-166.5 -302t-66 -274
q0 -79 42.5 -143t123.5 -64q76 0 163.5 37t160.5 92t134.5 115t96.5 109.5t35 70.5q0 23 -18.5 31t-55.5 8q-17 0 -111 -8.5t-131 -8.5q-176 0 -176 39q0 24 145 43q5 1 146.5 19t251 28.5t178.5 10.5q21 0 42 -20.5t21 -41.5q0 -9 -8.5 -15.5t-25 -10t-31 -5t-35.5 -3.5
q-10 -1 -14 -1zM1081 1661q-54 -38 -113 -87.5t-91.5 -76.5t-40.5 -27q-9 0 -17 9t-8 18q0 25 34.5 59.5t123.5 98.5q7 5 23.5 18.5t28.5 22.5t26.5 19.5t25 16t17.5 5.5q12 0 20 -8q11 -10 23.5 -28.5t30 -48.5t22.5 -38q43 -67 43 -84q0 -15 -8.5 -28t-22.5 -13
q-5 0 -8.5 3.5t-11 16t-17.5 29.5t-31.5 50.5t-48.5 72.5z" />
    <glyph glyph-name="gcircumflex" unicode="&#x11d;" horiz-adv-x="602" 
d="M440 131q-133 -139 -204 -139q-26 0 -66 12.5t-77.5 44t-37.5 72.5q0 98 73 232.5t169 230.5t160 96q26 0 72 -19.5t83 -46.5q29 49 40.5 62.5t21.5 13.5q20 0 40.5 -14.5t20.5 -34.5q0 -2 -29 -71t-76 -190t-81 -226q-14 -41 -30 -100.5t-26.5 -104.5t-24.5 -103.5
t-17 -72.5q-13 -76 -45 -121q-16 -23 -66 -52.5t-94 -29.5q-47 0 -138.5 40t-164 88t-72.5 71q0 9 8 15.5t17 6.5q4 0 40 -22.5t81.5 -50t102.5 -50t97 -22.5q14 0 25 2t20 4.5t17 9.5t13.5 12.5t12 18t10.5 20.5t10.5 27t10 30.5t11.5 36.5t13 41q14 43 39.5 143.5
t40.5 139.5zM457 250q39 62 78.5 150t39.5 143q0 57 -53 57q-29 0 -75 -32.5t-95 -87t-92.5 -118t-71.5 -134t-28 -126.5q0 -47 41 -47q65 0 140 63t116 132zM524 950q-54 -38 -113 -88t-91 -77t-39 -27q-10 0 -18.5 8.5t-8.5 19.5q0 24 34.5 58.5t123.5 99.5q9 7 38.5 30.5
t50.5 37.5t31 14q13 0 23 -10t23 -30t28.5 -46t24.5 -39q5 -9 13 -21.5t12.5 -20t9 -16t6.5 -15t2 -11.5q0 -15 -9.5 -28t-23.5 -13q-5 0 -8.5 3.5t-11 16.5t-17.5 30t-31.5 51t-48.5 73z" />
    <glyph glyph-name="Gbreve" unicode="&#x11e;" horiz-adv-x="1193" 
d="M1096 471q24 -16 30.5 -33t6.5 -43q0 -31 -15 -64t-29 -51.5t-42 -52.5q-58 -58 -108.5 -102.5t-123.5 -98.5t-148.5 -84t-144.5 -30q-85 0 -170.5 41.5t-141.5 112t-56 145.5q0 80 26.5 170.5t77 187.5t102.5 180.5t125 186.5q35 51 99 125t146 156t170.5 139t150.5 57
q48 0 83.5 -18t73.5 -52q84 -75 84 -157q0 -56 -54.5 -155t-118 -174t-89.5 -75q-18 0 -27.5 10t-11.5 20.5t-2 27.5q0 37 31 94.5t68.5 107t68.5 104t31 87.5q0 16 -2.5 28.5t-11.5 29.5t-31 26.5t-56 9.5q-50 0 -147 -76.5t-206.5 -202.5t-210 -271t-166.5 -302t-66 -274
q0 -79 42.5 -143t123.5 -64q76 0 163.5 37t160.5 92t134.5 115t96.5 109.5t35 70.5q0 23 -18.5 31t-55.5 8q-17 0 -111 -8.5t-131 -8.5q-176 0 -176 39q0 24 145 43q5 1 146.5 19t251 28.5t178.5 10.5q21 0 42 -20.5t21 -41.5q0 -9 -8.5 -15.5t-25 -10t-31 -5t-35.5 -3.5
q-10 -1 -14 -1zM1137 1645q20 16 43 16q21 0 35 -11.5t14 -29.5q0 -59 -67.5 -98t-147.5 -39q-19 0 -43.5 4t-56.5 13.5t-53 31t-21 51.5q0 25 24.5 49t59.5 35q-13 -33 -13 -49q0 -27 28 -44.5t73 -17.5t86.5 17.5t44.5 46.5q0 17 -6 25z" />
    <glyph glyph-name="gbreve" unicode="&#x11f;" horiz-adv-x="602" 
d="M440 131q-133 -139 -204 -139q-26 0 -66 12.5t-77.5 44t-37.5 72.5q0 98 73 232.5t169 230.5t160 96q26 0 72 -19.5t83 -46.5q29 49 40.5 62.5t21.5 13.5q20 0 40.5 -14.5t20.5 -34.5q0 -2 -29 -71t-76 -190t-81 -226q-14 -41 -30 -100.5t-26.5 -104.5t-24.5 -103.5
t-17 -72.5q-13 -76 -45 -121q-16 -23 -66 -52.5t-94 -29.5q-47 0 -138.5 40t-164 88t-72.5 71q0 9 8 15.5t17 6.5q4 0 40 -22.5t81.5 -50t102.5 -50t97 -22.5q14 0 25 2t20 4.5t17 9.5t13.5 12.5t12 18t10.5 20.5t10.5 27t10 30.5t11.5 36.5t13 41q14 43 39.5 143.5
t40.5 139.5zM457 250q39 62 78.5 150t39.5 143q0 57 -53 57q-29 0 -75 -32.5t-95 -87t-92.5 -118t-71.5 -134t-28 -126.5q0 -47 41 -47q65 0 140 63t116 132zM580 942q19 16 43 16q21 0 36 -11t15 -29q0 -59 -68 -98.5t-149 -39.5q-18 0 -43 4.5t-56 14.5t-52 31.5t-21 50.5
q0 25 24.5 50t59.5 34q-15 -31 -15 -50q0 -27 28 -44t73 -17t86.5 17.5t44.5 46.5q0 16 -6 24z" />
    <glyph glyph-name="Gdotaccent" unicode="&#x120;" horiz-adv-x="1193" 
d="M1096 471q24 -16 30.5 -33t6.5 -43q0 -31 -15 -64t-29 -51.5t-42 -52.5q-58 -58 -108.5 -102.5t-123.5 -98.5t-148.5 -84t-144.5 -30q-85 0 -170.5 41.5t-141.5 112t-56 145.5q0 80 26.5 170.5t77 187.5t102.5 180.5t125 186.5q35 51 99 125t146 156t170.5 139t150.5 57
q48 0 83.5 -18t73.5 -52q84 -75 84 -157q0 -56 -54.5 -155t-118 -174t-89.5 -75q-18 0 -27.5 10t-11.5 20.5t-2 27.5q0 37 31 94.5t68.5 107t68.5 104t31 87.5q0 16 -2.5 28.5t-11.5 29.5t-31 26.5t-56 9.5q-50 0 -147 -76.5t-206.5 -202.5t-210 -271t-166.5 -302t-66 -274
q0 -79 42.5 -143t123.5 -64q76 0 163.5 37t160.5 92t134.5 115t96.5 109.5t35 70.5q0 23 -18.5 31t-55.5 8q-17 0 -111 -8.5t-131 -8.5q-176 0 -176 39q0 24 145 43q5 1 146.5 19t251 28.5t178.5 10.5q21 0 42 -20.5t21 -41.5q0 -9 -8.5 -15.5t-25 -10t-31 -5t-35.5 -3.5
q-10 -1 -14 -1zM997 1501q-29 0 -49 21t-20 53q0 41 42 92t93 51q19 0 31 -20.5t12 -44.5q0 -53 -39 -102.5t-70 -49.5z" />
    <glyph glyph-name="gdotaccent" unicode="&#x121;" horiz-adv-x="602" 
d="M440 131q-133 -139 -204 -139q-26 0 -66 12.5t-77.5 44t-37.5 72.5q0 98 73 232.5t169 230.5t160 96q26 0 72 -19.5t83 -46.5q29 49 40.5 62.5t21.5 13.5q20 0 40.5 -14.5t20.5 -34.5q0 -2 -29 -71t-76 -190t-81 -226q-14 -41 -30 -100.5t-26.5 -104.5t-24.5 -103.5
t-17 -72.5q-13 -76 -45 -121q-16 -23 -66 -52.5t-94 -29.5q-47 0 -138.5 40t-164 88t-72.5 71q0 9 8 15.5t17 6.5q4 0 40 -22.5t81.5 -50t102.5 -50t97 -22.5q14 0 25 2t20 4.5t17 9.5t13.5 12.5t12 18t10.5 20.5t10.5 27t10 30.5t11.5 36.5t13 41q14 43 39.5 143.5
t40.5 139.5zM457 250q39 62 78.5 150t39.5 143q0 57 -53 57q-29 0 -75 -32.5t-95 -87t-92.5 -118t-71.5 -134t-28 -126.5q0 -47 41 -47q65 0 140 63t116 132zM473 778q-30 0 -50 20t-20 52q0 42 41.5 92.5t92.5 50.5q19 0 31 -20t12 -43q0 -53 -38 -102.5t-69 -49.5z" />
    <glyph glyph-name="Gcommaaccent" unicode="&#x122;" horiz-adv-x="1193" 
d="M1096 471q24 -16 30.5 -33t6.5 -43q0 -31 -15 -64t-29 -51.5t-42 -52.5q-58 -58 -108.5 -102.5t-123.5 -98.5t-148.5 -84t-144.5 -30q-85 0 -170.5 41.5t-141.5 112t-56 145.5q0 80 26.5 170.5t77 187.5t102.5 180.5t125 186.5q35 51 99 125t146 156t170.5 139t150.5 57
q48 0 83.5 -18t73.5 -52q84 -75 84 -157q0 -56 -54.5 -155t-118 -174t-89.5 -75q-18 0 -27.5 10t-11.5 20.5t-2 27.5q0 37 31 94.5t68.5 107t68.5 104t31 87.5q0 16 -2.5 28.5t-11.5 29.5t-31 26.5t-56 9.5q-50 0 -147 -76.5t-206.5 -202.5t-210 -271t-166.5 -302t-66 -274
q0 -79 42.5 -143t123.5 -64q76 0 163.5 37t160.5 92t134.5 115t96.5 109.5t35 70.5q0 23 -18.5 31t-55.5 8q-17 0 -111 -8.5t-131 -8.5q-176 0 -176 39q0 24 145 43q5 1 146.5 19t251 28.5t178.5 10.5q21 0 42 -20.5t21 -41.5q0 -9 -8.5 -15.5t-25 -10t-31 -5t-35.5 -3.5
q-10 -1 -14 -1zM612 -272q-46 -46 -86 -78q-11 -9 -34 -32.5t-39 -35.5t-31 -12q-10 0 -16 6q-19 13 -19 31q0 10 12.5 26.5t32 36.5t23.5 25q6 6 44.5 48.5t68 70.5t40.5 28q20 0 34.5 -15.5t14.5 -35.5q0 -8 -2.5 -15.5t-9 -15t-9.5 -11t-13 -12t-11 -9.5z" />
    <glyph glyph-name="gcommaaccent" unicode="&#x123;" horiz-adv-x="602" 
d="M440 131q-133 -139 -204 -139q-26 0 -66 12.5t-77.5 44t-37.5 72.5q0 98 73 232.5t169 230.5t160 96q26 0 72 -19.5t83 -46.5q29 49 40.5 62.5t21.5 13.5q20 0 40.5 -14.5t20.5 -34.5q0 -2 -29 -71t-76 -190t-81 -226q-14 -41 -30 -100.5t-26.5 -104.5t-24.5 -103.5
t-17 -72.5q-13 -76 -45 -121q-16 -23 -66 -52.5t-94 -29.5q-47 0 -138.5 40t-164 88t-72.5 71q0 9 8 15.5t17 6.5q4 0 40 -22.5t81.5 -50t102.5 -50t97 -22.5q14 0 25 2t20 4.5t17 9.5t13.5 12.5t12 18t10.5 20.5t10.5 27t10 30.5t11.5 36.5t13 41q14 43 39.5 143.5
t40.5 139.5zM457 250q39 62 78.5 150t39.5 143q0 57 -53 57q-29 0 -75 -32.5t-95 -87t-92.5 -118t-71.5 -134t-28 -126.5q0 -47 41 -47q65 0 140 63t116 132zM633 928q-6 -6 -45 -49t-68.5 -71t-40.5 -28q-20 0 -34.5 15.5t-14.5 35.5q0 7 2.5 14t5 11.5t8.5 11.5t9 9.5
t11 9.5t9 8q46 46 86 78q11 9 34 32.5t39.5 35.5t31.5 12q10 0 16 -6q18 -12 18 -31q0 -11 -12.5 -27.5t-31.5 -36t-23 -24.5z" />
    <glyph glyph-name="Hcircumflex" unicode="&#x124;" horiz-adv-x="1071" 
d="M879 244l77 221q-75 -7 -165.5 -19.5t-211 -31t-171.5 -25.5q-112 -318 -121 -379q-9 -48 -28 -64t-62 -16q-19 0 -25 10.5t-6 34.5q0 33 125 396q-142 -15 -185 -15q-75 0 -75 23q0 26 42.5 40.5t143.5 29.5l107 16q165 473 270 725l12 33t12.5 30t14.5 20.5t26.5 16.5
t40.5 4q43 0 43 -43q0 -30 -24 -84q-25 -54 -109.5 -264.5t-163.5 -417.5q224 34 545 68q127 356 273 711q15 33 42.5 53t59.5 20q29 0 40 -10.5t11 -30.5q0 -37 -67 -174q-105 -226 -213 -503.5t-164.5 -442t-61.5 -188.5q-10 -37 -55 -37q-16 0 -24.5 1.5t-14.5 9t-6 22.5
q0 28 22.5 110.5t45.5 149.5zM1073 1550q-54 -38 -113.5 -87.5t-91 -76t-39.5 -26.5q-10 0 -18 8.5t-8 17.5q0 25 34.5 59.5t123.5 98.5q7 6 23 18.5t28 22t26.5 20t25 16t17.5 5.5q13 0 23 -10q10 -9 23 -28.5t28.5 -46.5t24.5 -40q5 -9 13 -21.5t12.5 -20t9 -15.5t6.5 -14
t2 -11q0 -15 -9.5 -28t-23.5 -13q-5 0 -8.5 3.5t-11 16t-17.5 29.5t-31.5 50.5t-48.5 72.5z" />
    <glyph glyph-name="hcircumflex" unicode="&#x125;" horiz-adv-x="608" 
d="M453 535q-173 -184 -318 -478l-12 -24t-12 -22.5t-10.5 -15.5t-12.5 -12t-14 -3q-22 0 -44 12.5t-22 25.5q0 21 56 192.5t149.5 449.5t144.5 440q7 28 50 28q30 0 57 -15.5t27 -33.5q0 -4 -46.5 -112.5t-120.5 -299.5t-126 -364q24 30 68 89.5t77 103t71 89t68 70.5
t49 25t46 -18q6 -3 14 -7.5t11.5 -6t8.5 -4.5t6.5 -5t3.5 -4.5t2.5 -6t0.5 -7.5q0 -5 -16 -38.5t-42 -85.5t-39 -81q-31 -69 -64.5 -169t-33.5 -163q0 -18 5 -25.5t20 -7.5q62 0 147 107q64 79 108.5 148t58 91.5t22.5 22.5q10 0 10 -14q0 -45 -54 -147t-136 -192t-144 -90
q-16 0 -40.5 11.5t-43.5 29.5q-49 42 -49 91q0 138 119 426zM471 1305q-55 -38 -114.5 -87.5t-91.5 -76.5t-40 -27q-9 0 -16.5 9t-7.5 20q0 24 34 58t123 99q8 5 38.5 29.5t51 37.5t31.5 13q13 0 21 -8q11 -10 23.5 -29t29 -48t22.5 -38q43 -67 43 -83q0 -15 -8.5 -28
t-21.5 -13q-5 0 -9 3.5t-12 16.5t-17.5 29.5t-31 50.5t-47.5 72z" />
    <glyph glyph-name="Hbar" unicode="&#x126;" horiz-adv-x="1071" 
d="M879 244l77 221q-75 -7 -165.5 -19.5t-211 -31t-171.5 -25.5q-112 -318 -121 -379q-9 -48 -28 -64t-62 -16q-19 0 -25 10.5t-6 34.5q0 33 125 396q-142 -15 -185 -15q-75 0 -75 23q0 26 42.5 40.5t143.5 29.5l107 16l96 272q-82 -12 -115 -12q-76 0 -76 25q0 26 40.5 39
t146.5 30l35 6q92 244 143 365l12 33t12.5 30t14.5 20.5t26.5 16.5t40.5 4q43 0 43 -43q0 -30 -24 -84q-46 -100 -133 -325q280 44 540 73l138 349q15 33 42.5 53t59.5 20q29 0 40 -10.5t11 -30.5q0 -37 -67 -174q-16 -33 -44 -97t-40 -91q92 12 118 12q76 0 76 -24
q0 -27 -43 -42t-143 -28l-47 -6q-80 -192 -157 -399.5t-116.5 -325t-42.5 -133.5q-10 -37 -55 -37q-16 0 -24.5 1.5t-14.5 9t-6 22.5q0 28 22.5 110.5t45.5 149.5zM991 553l103 276l-545 -75q-37 -93 -103 -269q224 34 545 68z" />
    <glyph glyph-name="hbar" unicode="&#x127;" horiz-adv-x="608" 
d="M594 823h-209q-125 -314 -186 -520q24 30 68 89.5t77 103t71 89t68 70.5t49 25t46 -18q6 -3 14 -7.5t11.5 -6t8.5 -4.5t6.5 -5t3.5 -4.5t2.5 -6t0.5 -7.5q0 -5 -16 -38.5t-42 -85.5t-39 -81q-31 -69 -64.5 -169t-33.5 -163q0 -18 5 -25.5t20 -7.5q62 0 147 107
q64 79 108.5 148t58 91.5t22.5 22.5q10 0 10 -14q0 -45 -54 -147t-136 -192t-144 -90q-16 0 -40.5 11.5t-43.5 29.5q-49 42 -49 91q0 138 119 426q-173 -184 -318 -478l-12 -24t-12 -22.5t-10.5 -15.5t-12.5 -12t-14 -3q-22 0 -44 12.5t-22 25.5q0 11 14.5 60t42.5 135.5
t57 173.5t72.5 215.5t73.5 220.5q-76 -2 -131 -2q-18 0 -18 17q0 8 8 18.5t18 13.5q19 5 142 9l71 221q7 28 50 28q30 0 57 -15.5t27 -33.5q0 -4 -9.5 -26t-32 -74t-40.5 -96q78 2 163 2q101 0 101 -25q0 -13 -21.5 -25t-58.5 -12z" />
    <glyph glyph-name="Itilde" unicode="&#x128;" horiz-adv-x="690" 
d="M281 18l393 1135q-198 -25 -230 -25q-43 0 -43 19q0 9 9.5 18t28.5 17.5t37 15.5t47 14.5t46.5 12.5t46 11.5t35.5 8.5q99 23 223 37t205 16q76 0 76 -18q0 -50 -227 -86q-14 -3 -28.5 -5t-32 -4t-27.5 -3q-70 -154 -198 -486.5t-234 -650.5q116 21 124 21q34 0 75.5 -10
t41.5 -31q0 -31 -276.5 -85.5t-335.5 -54.5q-45 0 -45 27q0 39 289 106zM979 1468q-3 -34 -54 -67t-102 -33q-34 0 -78.5 31t-62.5 31q-26 0 -66 -31t-53 -31q-6 0 -6 8q0 12 12 29q34 37 74.5 62.5t75.5 25.5q25 0 73.5 -29.5t77.5 -29.5q23 0 56 22.5t39 22.5q14 0 14 -11
z" />
    <glyph glyph-name="itilde" unicode="&#x129;" horiz-adv-x="329" 
d="M199 -23q-20 0 -50.5 11t-52.5 26q-53 35 -53 109q0 85 86 274q54 127 79 165t52 38q26 0 44 -16.5t18 -38.5q0 -10 -28 -64t-61.5 -117t-61.5 -140t-28 -128q0 -32 6.5 -46.5t30.5 -14.5q79 0 238 252q4 6 24 38t36 53t24 21q6 0 11 -8t5 -20q0 -13 -12 -42t-21 -42
q-171 -310 -286 -310zM479 836q-3 -34 -54 -68.5t-101 -34.5q-34 0 -79 32t-63 32q-26 0 -66 -32t-53 -32q-6 0 -6 8q0 16 13 29q34 37 74.5 62.5t74.5 25.5q25 0 73.5 -29.5t76.5 -29.5q23 0 56.5 22.5t39.5 22.5q14 0 14 -8z" />
    <glyph glyph-name="Imacron" unicode="&#x12a;" horiz-adv-x="690" 
d="M281 18l393 1135q-198 -25 -230 -25q-43 0 -43 19q0 9 9.5 18t28.5 17.5t37 15.5t47 14.5t46.5 12.5t46 11.5t35.5 8.5q99 23 223 37t205 16q76 0 76 -18q0 -50 -227 -86q-14 -3 -28.5 -5t-32 -4t-27.5 -3q-70 -154 -198 -486.5t-234 -650.5q116 21 124 21q34 0 75.5 -10
t41.5 -31q0 -31 -276.5 -85.5t-335.5 -54.5q-45 0 -45 27q0 39 289 106zM952 1391q-374 -13 -415 -13q-23 0 -23 21q0 20 11.5 36.5t31.5 16.5q380 12 426 12q18 0 18 -20q0 -19 -14.5 -36t-34.5 -17z" />
    <glyph glyph-name="imacron" unicode="&#x12b;" horiz-adv-x="329" 
d="M199 -23q-20 0 -50.5 11t-52.5 26q-53 35 -53 109q0 85 86 274q54 127 79 165t52 38q26 0 44 -16.5t18 -38.5q0 -10 -28 -64t-61.5 -117t-61.5 -140t-28 -128q0 -32 6.5 -46.5t30.5 -14.5q79 0 238 252q4 6 24 38t36 53t24 21q6 0 11 -8t5 -20q0 -13 -12 -42t-21 -42
q-171 -310 -286 -310zM457 721q-49 -1 -149 -4t-179 -5.5t-86 -2.5q-25 0 -25 20t12 36.5t31 16.5q78 2 180 6t165.5 6.5t80.5 2.5q21 0 21 -23q0 -18 -15 -35.5t-36 -17.5z" />
    <glyph glyph-name="Ibreve" unicode="&#x12c;" horiz-adv-x="690" 
d="M281 18l393 1135q-198 -25 -230 -25q-43 0 -43 19q0 9 9.5 18t28.5 17.5t37 15.5t47 14.5t46.5 12.5t46 11.5t35.5 8.5q99 23 223 37t205 16q76 0 76 -18q0 -50 -227 -86q-14 -3 -28.5 -5t-32 -4t-27.5 -3q-70 -154 -198 -486.5t-234 -650.5q116 21 124 21q34 0 75.5 -10
t41.5 -31q0 -31 -276.5 -85.5t-335.5 -54.5q-45 0 -45 27q0 39 289 106zM899 1518q22 18 43 18q20 0 34.5 -12t14.5 -29q0 -59 -67.5 -99t-147.5 -40q-18 0 -43.5 4t-57 14t-52.5 32t-21 52q0 25 25 49t59 33q-12 -30 -12 -47q0 -27 27.5 -45t72.5 -18q44 0 86 18t45 47
q0 15 -6 23z" />
    <glyph glyph-name="ibreve" unicode="&#x12d;" horiz-adv-x="329" 
d="M199 -23q-20 0 -50.5 11t-52.5 26q-53 35 -53 109q0 85 86 274q54 127 79 165t52 38q26 0 44 -16.5t18 -38.5q0 -10 -28 -64t-61.5 -117t-61.5 -140t-28 -128q0 -32 6.5 -46.5t30.5 -14.5q79 0 238 252q4 6 24 38t36 53t24 21q6 0 11 -8t5 -20q0 -13 -12 -42t-21 -42
q-171 -310 -286 -310zM381 864q20 17 43 17q21 0 36 -11.5t15 -29.5q0 -59 -68 -98.5t-149 -39.5q-18 0 -43 4.5t-56 14.5t-52 31.5t-21 50.5q0 25 24.5 50t59.5 34q-14 -29 -14 -49q0 -27 27.5 -44.5t72.5 -17.5t86.5 17.5t44.5 46.5q0 16 -6 24z" />
    <glyph glyph-name="Iogonek" unicode="&#x12e;" horiz-adv-x="690" 
d="M281 18l393 1135q-198 -25 -230 -25q-43 0 -43 19q0 9 9.5 18t28.5 17.5t37 15.5t47 14.5t46.5 12.5t46 11.5t35.5 8.5q99 23 223 37t205 16q76 0 76 -18q0 -50 -227 -86q-14 -3 -28.5 -5t-32 -4t-27.5 -3q-70 -154 -198 -486.5t-234 -650.5q116 21 124 21q34 0 75.5 -10
t41.5 -31q0 -13 -36 -26t-117 -34q-54 -14 -122.5 -81t-68.5 -111q0 -39 49 -39q35 0 62.5 12t64.5 45q7 10 19 10q10 0 10 -8q-3 -43 -65.5 -86t-129.5 -43q-35 0 -55 18.5t-20 49.5q0 106 151 211q-107 -23 -219.5 -40.5t-134.5 -17.5q-45 0 -45 27q0 39 289 106z" />
    <glyph glyph-name="iogonek" unicode="&#x12f;" horiz-adv-x="329" 
d="M180 -20q-45 7 -84 34q-53 35 -53 109q0 85 86 274q54 127 79 165t52 38q26 0 44 -16.5t18 -38.5q0 -10 -28 -64t-61.5 -117t-61.5 -140t-28 -128q0 -32 6.5 -46.5t30.5 -14.5q79 0 238 252q4 6 24 38t36 53t24 21q6 0 11 -8t5 -20q0 -13 -12 -42t-21 -42
q-142 -252 -237 -297q-45 -21 -100.5 -82t-55.5 -103q0 -38 47 -38q34 0 61.5 12.5t65.5 44.5q10 10 21 10q8 0 8 -8q-3 -43 -65.5 -86t-129.5 -43q-34 0 -54.5 18t-20.5 49q0 111 155 216zM385 778q-30 0 -50 20t-20 52q0 42 41.5 92.5t92.5 50.5q20 0 31.5 -20t11.5 -43
q0 -53 -38 -102.5t-69 -49.5z" />
    <glyph glyph-name="Idotaccent" unicode="&#x130;" horiz-adv-x="690" 
d="M281 18l393 1135q-198 -25 -230 -25q-43 0 -43 19q0 9 9.5 18t28.5 17.5t37 15.5t47 14.5t46.5 12.5t46 11.5t35.5 8.5q99 23 223 37t205 16q76 0 76 -18q0 -50 -227 -86q-14 -3 -28.5 -5t-32 -4t-27.5 -3q-70 -154 -198 -486.5t-234 -650.5q116 21 124 21q34 0 75.5 -10
t41.5 -31q0 -31 -276.5 -85.5t-335.5 -54.5q-45 0 -45 27q0 39 289 106zM815 1384q-30 0 -50 21t-20 53q0 41 41.5 92.5t92.5 51.5q20 0 31.5 -20.5t11.5 -45.5q0 -53 -38 -102.5t-69 -49.5z" />
    <glyph glyph-name="dotlessi" unicode="&#x131;" horiz-adv-x="329" 
d="M199 -23q-20 0 -50.5 11t-52.5 26q-53 35 -53 109q0 85 86 274q54 127 79 165t52 38q26 0 44 -16.5t18 -38.5q0 -10 -28 -64t-61.5 -117t-61.5 -140t-28 -128q0 -32 6.5 -46.5t30.5 -14.5q79 0 238 252q4 6 24 38t36 53t24 21q6 0 11 -8t5 -20q0 -13 -12 -42t-21 -42
q-171 -310 -286 -310z" />
    <glyph glyph-name="IJ" unicode="&#x132;" horiz-adv-x="1300" 
d="M1587 1208q-77 -177 -251.5 -729t-178.5 -563q-22 -67 -41.5 -116.5t-51 -109.5t-64.5 -98t-79 -64t-98 -26q-65 0 -158.5 34.5t-175.5 98.5q-4 3 -20.5 16t-27 21.5t-27 23t-27.5 25.5t-22.5 23.5t-17 23.5t-5.5 19q0 10 7.5 18.5t15.5 8.5q8 -1 19 -12.5t24.5 -28.5
t23.5 -25q100 -87 173.5 -122.5t172.5 -35.5q35 0 66 16t61.5 55t56.5 87t59 132t62 168t71.5 216t81.5 255.5t98 307.5t116 353q-169 -31 -205 -31q-92 0 -92 25q0 15 14 26t44 19.5t59 14t78 14.5t82 16q84 18 199 37.5t138 19.5q48 0 48 -14q0 -44 -228 -99zM281 18
l393 1135q-198 -25 -230 -25q-43 0 -43 19q0 9 9.5 18t28.5 17.5t37 15.5t47 14.5t46.5 12.5t46 11.5t35.5 8.5q99 23 223 37t205 16q76 0 76 -18q0 -50 -227 -86q-14 -3 -28.5 -5t-32 -4t-27.5 -3q-70 -154 -198 -486.5t-234 -650.5q116 21 124 21q34 0 75.5 -10t41.5 -31
q0 -31 -276.5 -85.5t-335.5 -54.5q-45 0 -45 27q0 39 289 106z" />
    <glyph glyph-name="ij" unicode="&#x133;" horiz-adv-x="546" 
d="M213 -344l139 428q-83 -107 -153 -107q-20 0 -50.5 11t-52.5 26q-53 35 -53 109q0 85 86 274q54 127 79 165t52 38q26 0 44 -16.5t18 -38.5q0 -10 -28 -64t-61.5 -117t-61.5 -140t-28 -128q0 -32 6.5 -46.5t30.5 -14.5q47 0 132.5 94.5t107.5 159.5q81 243 94 274
q18 51 26 63.5t21 12.5q12 0 36 -11t24 -26q0 -16 -43.5 -131.5t-121 -352.5t-141.5 -495q-13 -53 -48 -90t-85 -37q-64 0 -123 21.5t-95 51t-57.5 56t-21.5 39.5q0 8 9.5 12.5t19.5 4.5q18 0 41 -16.5t43.5 -36t53.5 -36t69 -16.5q16 0 25 1.5t22.5 8.5t24 24t20.5 46z
M385 778q-30 0 -50 20t-20 52q0 42 41.5 92.5t92.5 50.5q20 0 31.5 -20t11.5 -43q0 -53 -38 -102.5t-69 -49.5zM666 811q-20 0 -40 17t-20 40q0 38 46 95t75 57q17 0 36 -16t19 -35q0 -56 -40.5 -107t-75.5 -51z" />
    <glyph glyph-name="Jcircumflex" unicode="&#x134;" horiz-adv-x="876" 
d="M1157 1208q-55 -124 -108.5 -281.5t-115 -355.5t-95.5 -299q-22 -67 -41.5 -116.5t-51 -109t-64.5 -97.5t-79 -64t-98 -26q-65 0 -157.5 34.5t-174.5 98.5q-3 3 -30 23.5t-41.5 33t-35.5 32t-31.5 35t-10.5 27.5q0 10 7 18.5t15 8.5q8 -1 19.5 -12.5t25.5 -29t23 -24.5
q100 -87 173.5 -123t172.5 -36q35 0 67 18t62 56t56.5 85.5t56 120t55 144t58 172.5t61.5 192t69 216t76 231q-169 -31 -205 -31q-92 0 -92 25q0 15 14 26t44 19.5t58.5 14t77.5 14.5t82 16q84 18 199.5 37.5t138.5 19.5q47 0 47 -14q0 -45 -227 -99zM1116 1552
q-54 -38 -113.5 -87.5t-91 -76t-39.5 -26.5q-10 0 -18 9t-8 18q0 23 34 57.5t124 99.5q7 6 23 18.5t28 22t26.5 20t25 16t17.5 5.5q13 0 23 -10q10 -9 23 -28.5t28.5 -46.5t24.5 -40q3 -6 9 -16l9 -15l7.5 -12.5t6.5 -12t4.5 -10.5t3.5 -10t1 -8q0 -14 -8.5 -26.5
t-22.5 -12.5q-5 0 -8.5 3.5t-11 16t-17.5 29.5t-31.5 50.5t-48.5 72.5z" />
    <glyph glyph-name="jcircumflex" unicode="&#x135;" horiz-adv-x="217" 
d="M-14 -377q-11 -54 -45.5 -90.5t-85.5 -36.5q-65 0 -124 21.5t-95 51t-57 56t-21 39.5q0 8 9.5 12.5t18.5 4.5q17 0 39.5 -16.5t43 -36t53.5 -36t69 -16.5q17 0 26.5 1.5t23 8.5t24 24t20.5 46q69 209 139 422t106 323t54 162q21 52 28.5 64t18.5 12q14 0 37 -11t23 -26
q0 -17 -42.5 -132t-120 -352t-142.5 -495zM299 881q-54 -38 -113.5 -87.5t-91.5 -76.5t-39 -27q-10 0 -18 9t-8 20q0 24 34 58t123 97q7 5 23.5 18.5t28.5 22.5t26.5 19.5t25 16t17.5 5.5q11 0 23 -8q10 -10 23 -29.5t28.5 -45.5t24.5 -39q40 -68 40 -84q0 -15 -8 -28
t-22 -13q-5 0 -8.5 3.5t-11 16t-17.5 29.5t-31.5 50.5t-48.5 72.5z" />
    <glyph glyph-name="Kcommaaccent" unicode="&#x136;" horiz-adv-x="911" 
d="M739 797q-23 -90 -39 -231t-16 -267t20.5 -204.5t61.5 -78.5q13 0 28.5 6.5t31 19t30.5 26t31.5 33t28.5 35t27 36t22.5 31.5t18 27.5t11.5 17.5q40 57 50 64q7 5 14 5q10 0 10 -20q0 -27 -37 -84q-20 -34 -31.5 -52.5t-45 -65.5t-61 -74.5t-66 -51.5t-72.5 -24
q-197 0 -197 417q0 138 19 295q-231 -205 -293 -305q-17 -26 -50 -130t-53 -197q-3 -13 -4.5 -32t-2.5 -27.5t-7.5 -15.5t-20.5 -7q-46 0 -63.5 13t-17.5 42q0 42 69 268q226 690 350 1004q6 16 16.5 23.5t20 8.5t29.5 1q28 0 44.5 -10.5t16.5 -24.5q0 -9 -6.5 -28
t-18 -46.5t-14.5 -36.5q-12 -32 -49 -126.5t-53.5 -139t-49 -135.5t-65.5 -191q85 95 348 322.5t420 351.5q6 5 25 19t30.5 22.5t27 19.5t25.5 16t15 5q26 0 47 -13t21 -34q0 -5 -3 -10t-11 -12t-12 -10t-15 -11l-10 -8q-212 -160 -525 -426zM426 -180q-46 -46 -86 -78
q-9 -8 -33.5 -33t-40 -36t-30.5 -11q-10 0 -19 6q-16 10 -16 31q0 10 11.5 26t33 37.5l22.5 22.5q131 149 154 149q19 0 34 -16t15 -35q0 -28 -45 -63z" />
    <glyph glyph-name="kcommaaccent" unicode="&#x137;" horiz-adv-x="591" 
d="M186 166l-32 -8q-7 -20 -37 -117q-12 -39 -27 -51.5t-45 -12.5q-37 0 -37 25q0 7 18 65t27 80q34 91 136 359t155 418q7 18 15.5 45.5t15 47.5t14 39.5t14 29.5t13.5 10q96 0 96 -45q0 -22 -34.5 -103.5t-103.5 -237t-118 -274.5q73 96 167 179t157 83q34 0 55.5 -16
t21.5 -49q0 -103 -104.5 -223t-247.5 -195q5 -188 105 -188q56 0 110 38.5t93 94t70.5 111t53 94t29.5 38.5t13 -9.5t5 -20.5q0 -10 -16 -51.5t-48.5 -101t-74 -114.5t-100.5 -94t-119 -39q-84 0 -146 55t-94 138zM176 223q53 8 141.5 75t159 156.5t70.5 151.5q0 17 -12 17
q-20 0 -91 -60t-153 -158.5t-115 -181.5zM254 -203q-30 -32 -74 -67q-11 -9 -30.5 -29t-33.5 -30.5t-26 -10.5q-10 0 -16 6q-17 6 -17 27q0 8 11.5 22.5t28 31.5t20.5 22q3 4 20.5 23.5t31.5 34.5t32 33t31.5 28t19.5 10q17 0 29 -13.5t12 -31.5q0 -8 -2 -14.5t-8 -13.5
t-8 -9.5t-11 -10.5z" />
    <glyph glyph-name="kgreenlandic" unicode="&#x138;" horiz-adv-x="591" 
d="M186 166l-32 -8q-7 -20 -37 -117q-12 -39 -27 -51.5t-45 -12.5q-37 0 -37 25q0 7 18 65t27 80q39 110 197 521q5 13 10.5 30t8.5 26.5t7 18.5t7.5 13t7.5 4q31 0 46.5 -2t27.5 -10.5t12 -26.5q0 -4 -121 -285q73 96 167 179t157 83q34 0 55.5 -16t21.5 -49
q0 -103 -104.5 -223t-247.5 -195q5 -188 105 -188q56 0 110 38.5t93 94t70.5 111t53 94t29.5 38.5t13 -9.5t5 -20.5q0 -10 -16 -51.5t-48.5 -101t-74 -114.5t-100.5 -94t-119 -39q-84 0 -146 55t-94 138zM176 223q53 8 141.5 75t159 156.5t70.5 151.5q0 17 -12 17
q-20 0 -91 -60t-153 -158.5t-115 -181.5z" />
    <glyph glyph-name="Lacute" unicode="&#x139;" horiz-adv-x="696" 
d="M682 25q0 -22 -51 -33q-92 -14 -216.5 -37t-205.5 -38t-103 -15q-15 0 -24 1t-22.5 4t-20 12.5t-6.5 23.5q0 147 340 1089q20 55 46 134q27 78 36.5 99t21.5 21q27 0 66 -20t39 -39q0 -24 -35 -109q-176 -428 -281.5 -720t-105.5 -361q0 -31 37 -31q19 0 198.5 18.5
t218.5 18.5q68 0 68 -18zM756 1567q-61 -41 -126.5 -95t-101 -84t-43.5 -30q-10 0 -18 8.5t-8 17.5q0 25 34 60t123 98q7 5 23.5 18.5t28.5 22.5t26.5 19.5t25 16t17.5 5.5q13 0 22 -9.5t9 -21.5q0 -14 -12 -26z" />
    <glyph glyph-name="lacute" unicode="&#x13a;" horiz-adv-x="382" 
d="M250 408q-68 -197 -68 -273q0 -58 12.5 -82t41.5 -24q35 0 82.5 43t78 85t58.5 87q22 33 49 79.5t40.5 67.5t18.5 21q6 0 12.5 -4.5t6.5 -16.5q0 -18 -31.5 -85t-78 -145t-111.5 -139t-121 -61q-71 0 -110.5 55t-39.5 131q0 142 77.5 353t188.5 420q19 36 29.5 56
t33 59.5t40 63.5t39 50.5t42 39.5t38.5 13q48 0 82 -25.5t34 -78.5q0 -64 -75 -205t-181 -281.5t-188 -203.5zM623 1128q-84 -85 -177 -262t-167 -372q64 61 144 183.5t138.5 251.5t61.5 199zM842 1495q-60 -41 -125 -95t-100.5 -84t-45.5 -30q-9 0 -16.5 9t-7.5 18
q0 23 34 57.5t124 99.5q8 6 29.5 23.5t35 28.5t30 20.5t25.5 9.5q12 0 21.5 -9.5t9.5 -20.5q0 -19 -14 -27z" />
    <glyph glyph-name="Lcommaaccent" unicode="&#x13b;" horiz-adv-x="696" 
d="M682 25q0 -22 -51 -33q-92 -14 -216.5 -37t-205.5 -38t-103 -15q-15 0 -24 1t-22.5 4t-20 12.5t-6.5 23.5q0 147 340 1089q20 55 46 134q27 78 36.5 99t21.5 21q27 0 66 -20t39 -39q0 -24 -35 -109q-176 -428 -281.5 -720t-105.5 -361q0 -31 37 -31q19 0 198.5 18.5
t218.5 18.5q68 0 68 -18zM416 -242q-63 -59 -74 -67q-7 -6 -21.5 -19.5t-22 -20t-18 -15t-17 -12t-11.5 -3.5q-12 0 -22.5 10t-10.5 23q0 8 11.5 22.5t28 31.5t20.5 22q3 4 20.5 23.5t32 34.5t32 33t30 28t18.5 10q18 0 30.5 -13.5t12.5 -31.5q0 -9 -4.5 -18t-8.5 -13.5
t-13.5 -13t-12.5 -11.5z" />
    <glyph glyph-name="lcommaaccent" unicode="&#x13c;" horiz-adv-x="382" 
d="M250 408q-68 -197 -68 -273q0 -58 12.5 -82t41.5 -24q35 0 82.5 43t78 85t58.5 87q22 33 49 79.5t40.5 67.5t18.5 21q6 0 12.5 -4.5t6.5 -16.5q0 -18 -31.5 -85t-78 -145t-111.5 -139t-121 -61q-71 0 -110.5 55t-39.5 131q0 142 77.5 353t188.5 420q19 36 29.5 56
t33 59.5t40 63.5t39 50.5t42 39.5t38.5 13q48 0 82 -25.5t34 -78.5q0 -64 -75 -205t-181 -281.5t-188 -203.5zM623 1128q-84 -85 -177 -262t-167 -372q64 61 144 183.5t138.5 251.5t61.5 199zM270 -215q-43 -43 -73 -70q-77 -69 -93 -69q-11 0 -20.5 10t-9.5 22q0 9 10.5 23
t29 33t19.5 20q111 129 133 129q19 0 31 -13t12 -32q0 -7 -2 -13.5t-7.5 -12.5t-8.5 -9.5t-11 -9.5t-10 -8z" />
    <glyph glyph-name="Lcaron" unicode="&#x13d;" horiz-adv-x="774" 
d="M682 25q0 -22 -51 -33q-92 -14 -216.5 -37t-205.5 -38t-103 -15q-15 0 -24 1t-22.5 4t-20 12.5t-6.5 23.5q0 147 340 1089q20 55 46 134q27 78 36.5 99t21.5 21q27 0 66 -20t39 -39q0 -24 -35 -109q-176 -428 -281.5 -720t-105.5 -361q0 -31 37 -31q19 0 198.5 18.5
t218.5 18.5q68 0 68 -18zM905 967q-154 -176 -182 -176q-12 0 -19.5 10.5t-7.5 25.5q0 39 62 111q48 54 86.5 107.5t53 72.5t26.5 19q13 0 31 -21.5t18 -32.5q0 -38 -68 -116z" />
    <glyph glyph-name="lcaron" unicode="&#x13e;" horiz-adv-x="632" 
d="M250 408q-68 -197 -68 -273q0 -58 12.5 -82t41.5 -24q35 0 82.5 43t78 85t58.5 87q22 33 49 79.5t40.5 67.5t18.5 21q6 0 12.5 -4.5t6.5 -16.5q0 -18 -31.5 -85t-78 -145t-111.5 -139t-121 -61q-71 0 -110.5 55t-39.5 131q0 142 77.5 353t188.5 420q19 36 29.5 56
t33 59.5t40 63.5t39 50.5t42 39.5t38.5 13q48 0 82 -25.5t34 -78.5q0 -64 -75 -205t-181 -281.5t-188 -203.5zM623 1128q-84 -85 -177 -262t-167 -372q64 61 144 183.5t138.5 251.5t61.5 199zM731 733q-9 0 -14.5 11t-5.5 24q0 41 49 106q38 51 70 101.5t44 68t21 17.5
q11 0 26 -19.5t15 -29.5q0 -37 -57 -111q-122 -168 -148 -168z" />
    <glyph glyph-name="Ldot" unicode="&#x13f;" horiz-adv-x="796" 
d="M682 25q0 -22 -51 -33q-92 -14 -216.5 -37t-205.5 -38t-103 -15q-15 0 -24 1t-22.5 4t-20 12.5t-6.5 23.5q0 147 340 1089q20 55 46 134q27 78 36.5 99t21.5 21q27 0 66 -20t39 -39q0 -24 -35 -109q-176 -428 -281.5 -720t-105.5 -361q0 -31 37 -31q19 0 198.5 18.5
t218.5 18.5q68 0 68 -18zM805 514q0 -30 -39.5 -68t-77.5 -38q-30 0 -50 15.5t-20 45.5q0 33 38.5 76t74.5 43q32 0 53 -28t21 -46z" />
    <glyph glyph-name="ldot" unicode="&#x140;" horiz-adv-x="651" 
d="M250 408q-68 -197 -68 -273q0 -58 12.5 -82t41.5 -24q35 0 82.5 43t78 85t58.5 87q22 33 49 79.5t40.5 67.5t18.5 21q6 0 12.5 -4.5t6.5 -16.5q0 -18 -31.5 -85t-78 -145t-111.5 -139t-121 -61q-71 0 -110.5 55t-39.5 131q0 142 77.5 353t188.5 420q19 36 29.5 56
t33 59.5t40 63.5t39 50.5t42 39.5t38.5 13q48 0 82 -25.5t34 -78.5q0 -64 -75 -205t-181 -281.5t-188 -203.5zM623 1128q-84 -85 -177 -262t-167 -372q64 61 144 183.5t138.5 251.5t61.5 199zM752 563q0 -30 -40 -68t-77 -38q-30 0 -51 15.5t-21 45.5q0 33 38.5 76t76.5 43
q31 0 52.5 -28t21.5 -46z" />
    <glyph glyph-name="Lslash" unicode="&#x141;" horiz-adv-x="696" 
d="M123 303l-98 -43q-8 -4 -9 -4q-22 0 -22 35q0 22 22 33l134 61q79 246 223 647q20 55 46 134q27 78 36.5 99t21.5 21q27 0 66 -20t39 -39q0 -24 -35 -109q-156 -377 -264 -669q184 92 200 92q4 0 10.5 -7.5t6.5 -19.5q0 -32 -25 -45q-23 -13 -223 -104q-92 -262 -92 -328
q0 -31 37 -31q19 0 198.5 18.5t218.5 18.5q68 0 68 -18q0 -22 -51 -33q-92 -14 -216.5 -37t-205.5 -38t-103 -15q-15 0 -24 1t-22.5 4t-20 12.5t-6.5 23.5q0 75 90 360z" />
    <glyph glyph-name="lslash" unicode="&#x142;" horiz-adv-x="382" 
d="M475 469l-246 -115q-47 -159 -47 -219q0 -58 12.5 -82t41.5 -24q35 0 82.5 43t78 85t58.5 87q22 33 49 79.5t40.5 67.5t18.5 21q6 0 12.5 -4.5t6.5 -16.5q0 -18 -31.5 -85t-78 -145t-111.5 -139t-121 -61q-71 0 -110.5 55t-39.5 131q0 65 16 150l-81 -37q-8 -4 -9 -4
q-22 0 -22 35q0 22 22 33q17 7 55.5 25.5t55.5 25.5q63 228 229 545q19 36 29.5 56t33 59.5t40 63.5t39 50.5t42 39.5t38.5 13q48 0 82 -25.5t34 -78.5q0 -86 -127.5 -295.5t-255.5 -339.5q163 78 172 78q4 0 10.5 -7.5t6.5 -19.5q0 -32 -25 -45zM623 1128
q-84 -85 -177 -262t-167 -372q64 61 144 183.5t138.5 251.5t61.5 199z" />
    <glyph glyph-name="Nacute" unicode="&#x143;" horiz-adv-x="933" 
d="M682 96q271 771 418 1121q35 83 43 92q10 10 22 10q56 0 56 -27q0 -9 -76.5 -208t-179 -491t-152.5 -489q-6 -29 -10 -43.5t-13 -32.5t-22 -30q-47 -47 -123 -47q-23 0 -41.5 26t-31 73.5t-21.5 107.5t-14 135.5t-7 149t-2 155.5q0 282 15 496q-32 -33 -151.5 -390
t-209.5 -694q-3 -15 -21.5 -30t-35.5 -15q-16 0 -29.5 18.5t-13.5 34.5t48 192t140.5 473.5t186.5 553.5q25 64 43.5 77t89.5 13q52 0 82 -23t30 -51q0 -2 -7 -46t-17 -117t-20.5 -161t-17.5 -197.5t-7 -207.5q0 -281 49 -428zM1116 1591q-60 -40 -125 -94t-100.5 -84.5
t-44.5 -30.5t-17 9.5t-8 19.5q0 24 34.5 58.5t123.5 99.5q9 6 39 30t51 38t31 14q12 0 21 -10.5t9 -22.5q0 -16 -14 -27z" />
    <glyph glyph-name="nacute" unicode="&#x144;" horiz-adv-x="595" 
d="M231 350q205 299 277 299q48 0 77 -24.5t29 -69.5q0 -20 -30.5 -79t-67.5 -124t-67.5 -148.5t-30.5 -146.5q0 -43 26 -43q39 0 103 64q51 51 103 133.5t82 137t40 54.5q16 0 16 -22t-28 -76q-106 -224 -236 -325q-25 -25 -55 -25q-18 0 -40 8t-46.5 24.5t-40.5 49.5
t-16 76q0 59 38.5 162t77.5 186.5t39 95.5l-6 4q-16 0 -80.5 -71.5t-143 -191.5t-114.5 -224q-2 -7 -6.5 -20.5t-6 -17.5t-4.5 -12.5t-6 -10.5t-7 -6.5t-9.5 -5.5t-12.5 -2t-17 -1q-50 0 -50 39q0 32 37 127q16 46 37.5 111t34.5 103.5t29 86t26 74.5t19.5 52.5t14.5 36.5
t7 11q33 0 67 -13.5t34 -37.5q0 -13 -11.5 -39.5t-36 -82t-45.5 -116.5zM645 948q-60 -41 -125 -95t-100 -84t-45 -30q-9 0 -17 9t-8 18q0 24 34.5 58.5t123.5 99.5q7 6 23 18.5t28 22t26 20t25.5 16t18.5 5.5q12 0 21 -9.5t9 -21.5q0 -19 -14 -27z" />
    <glyph glyph-name="Ncommaaccent" unicode="&#x145;" horiz-adv-x="933" 
d="M682 96q271 771 418 1121q35 83 43 92q10 10 22 10q56 0 56 -27q0 -9 -76.5 -208t-179 -491t-152.5 -489q-6 -29 -10 -43.5t-13 -32.5t-22 -30q-47 -47 -123 -47q-23 0 -41.5 26t-31 73.5t-21.5 107.5t-14 135.5t-7 149t-2 155.5q0 282 15 496q-32 -33 -151.5 -390
t-209.5 -694q-3 -15 -21.5 -30t-35.5 -15q-16 0 -29.5 18.5t-13.5 34.5t48 192t140.5 473.5t186.5 553.5q25 64 43.5 77t89.5 13q52 0 82 -23t30 -51q0 -2 -7 -46t-17 -117t-20.5 -161t-17.5 -197.5t-7 -207.5q0 -281 49 -428zM383 -188q-10 -10 -22.5 -22t-19.5 -18.5
t-15.5 -14t-16.5 -13.5q-76 -72 -90 -72q-12 0 -22.5 11t-10.5 24q0 8 11.5 22.5t28 31.5t20.5 22l20 23q21 22 33 34.5t30.5 31.5t31 28.5t18.5 9.5q19 0 31 -13t12 -32q0 -7 -2 -13.5t-7.5 -12.5t-8.5 -9.5t-11 -9.5t-10 -8z" />
    <glyph glyph-name="ncommaaccent" unicode="&#x146;" horiz-adv-x="595" 
d="M231 350q205 299 277 299q48 0 77 -24.5t29 -69.5q0 -20 -30.5 -79t-67.5 -124t-67.5 -148.5t-30.5 -146.5q0 -43 26 -43q39 0 103 64q51 51 103 133.5t82 137t40 54.5q16 0 16 -22t-28 -76q-106 -224 -236 -325q-25 -25 -55 -25q-18 0 -40 8t-46.5 24.5t-40.5 49.5
t-16 76q0 59 38.5 162t77.5 186.5t39 95.5l-6 4q-16 0 -80.5 -71.5t-143 -191.5t-114.5 -224q-2 -7 -6.5 -20.5t-6 -17.5t-4.5 -12.5t-6 -10.5t-7 -6.5t-9.5 -5.5t-12.5 -2t-17 -1q-50 0 -50 39q0 32 37 127q16 46 37.5 111t34.5 103.5t29 86t26 74.5t19.5 52.5t14.5 36.5
t7 11q33 0 67 -13.5t34 -37.5q0 -13 -11.5 -39.5t-36 -82t-45.5 -116.5zM223 -168q-68 -64 -73 -68q-77 -69 -93 -69q-11 0 -20.5 10t-9.5 23q0 8 11 22t27.5 31t20.5 22q3 4 20.5 23.5t32 34.5t32 33t30 28t18.5 10q18 0 30.5 -13.5t12.5 -31.5q0 -9 -4.5 -17.5t-8.5 -13
t-13.5 -13t-12.5 -11.5z" />
    <glyph glyph-name="Ncaron" unicode="&#x147;" horiz-adv-x="933" 
d="M682 96q271 771 418 1121q35 83 43 92q10 10 22 10q56 0 56 -27q0 -9 -76.5 -208t-179 -491t-152.5 -489q-6 -29 -10 -43.5t-13 -32.5t-22 -30q-47 -47 -123 -47q-23 0 -41.5 26t-31 73.5t-21.5 107.5t-14 135.5t-7 149t-2 155.5q0 282 15 496q-32 -33 -151.5 -390
t-209.5 -694q-3 -15 -21.5 -30t-35.5 -15q-16 0 -29.5 18.5t-13.5 34.5t48 192t140.5 473.5t186.5 553.5q25 64 43.5 77t89.5 13q52 0 82 -23t30 -51q0 -2 -7 -46t-17 -117t-20.5 -161t-17.5 -197.5t-7 -207.5q0 -281 49 -428zM885 1456q55 38 114.5 87.5t91.5 76.5t39 27
q10 0 17.5 -9t7.5 -20q0 -24 -34 -58.5t-122 -99.5q-12 -8 -40.5 -30.5t-49 -36t-30.5 -13.5q-14 0 -23 9q-10 10 -23 29.5t-28.5 45.5t-24.5 39q-5 8 -13 21.5t-12 20.5t-9 16t-7 15t-2 11q0 15 9 28t22 13q5 0 9 -3.5t12 -16.5t17.5 -29.5t31 -50.5t47.5 -72z" />
    <glyph glyph-name="ncaron" unicode="&#x148;" horiz-adv-x="595" 
d="M231 350q205 299 277 299q48 0 77 -24.5t29 -69.5q0 -20 -30.5 -79t-67.5 -124t-67.5 -148.5t-30.5 -146.5q0 -43 26 -43q39 0 103 64q51 51 103 133.5t82 137t40 54.5q16 0 16 -22t-28 -76q-106 -224 -236 -325q-25 -25 -55 -25q-18 0 -40 8t-46.5 24.5t-40.5 49.5
t-16 76q0 59 38.5 162t77.5 186.5t39 95.5l-6 4q-16 0 -80.5 -71.5t-143 -191.5t-114.5 -224q-2 -7 -6.5 -20.5t-6 -17.5t-4.5 -12.5t-6 -10.5t-7 -6.5t-9.5 -5.5t-12.5 -2t-17 -1q-50 0 -50 39q0 32 37 127q16 46 37.5 111t34.5 103.5t29 86t26 74.5t19.5 52.5t14.5 36.5
t7 11q33 0 67 -13.5t34 -37.5q0 -13 -11.5 -39.5t-36 -82t-45.5 -116.5zM414 807q55 38 114.5 87.5t91.5 76t39 26.5q10 0 17.5 -7.5t7.5 -18.5q0 -24 -34.5 -58.5t-123.5 -99.5q-10 -7 -38.5 -30.5t-49 -37.5t-30.5 -14q-13 0 -23 10q-10 9 -22.5 27t-30.5 49.5t-23 38.5
q-5 9 -13 21.5t-12.5 20t-9 16t-6.5 15t-2 11.5q0 13 9 27t22 14q5 0 9 -3.5t12 -16.5t17.5 -29.5t31 -51t47.5 -73.5z" />
    <glyph glyph-name="napostrophe" unicode="&#x149;" horiz-adv-x="692" 
d="M330 350q205 299 274 299q50 0 79.5 -24.5t29.5 -69.5q0 -20 -31 -79t-67.5 -124t-67.5 -148.5t-31 -146.5q0 -43 25 -43q44 0 102 64q51 51 103 133.5t82.5 137t41.5 54.5q15 0 15 -22q0 -24 -27 -76q-111 -227 -235 -325q-28 -25 -58 -25q-18 0 -40 8t-46.5 24.5
t-40.5 49.5t-16 76q0 59 39 162t78 186.5t39 95.5q0 2 -2 3t-4 1h-1q-11 0 -53.5 -45t-94.5 -112t-105.5 -158.5t-81.5 -171.5q-3 -8 -8.5 -23t-7 -19t-6 -13t-7.5 -10.5t-9.5 -5.5t-13.5 -4.5t-18 -0.5q-49 0 -49 39q0 24 35 127q22 63 52 151.5t46.5 135.5t34 96.5
t26 70.5t11.5 21q32 0 65 -13.5t33 -37.5q0 -13 -11.5 -39.5t-35 -82t-43.5 -116.5zM365 807l-74 -68q-8 -7 -22.5 -19.5t-22.5 -19.5t-18.5 -15t-17 -11.5t-11.5 -3.5q-12 0 -21.5 9.5t-9.5 22.5q0 8 11.5 22.5t26.5 31t19 22.5q5 5 39 42.5t60 62t36 24.5q17 0 30 -14
t13 -31q0 -12 -5.5 -21t-17.5 -20t-15 -14z" />
    <glyph glyph-name="Eng" unicode="&#x14a;" horiz-adv-x="886" 
d="M592 -47q-111 15 -111 645q0 282 15 496q-32 -33 -151.5 -390t-209.5 -694q-3 -15 -21.5 -30t-35.5 -15q-16 0 -29.5 18.5t-13.5 34.5t48 192t140.5 473.5t186.5 553.5q25 64 43.5 77t89.5 13q52 0 82 -23t30 -51q0 -2 -7 -46t-17.5 -117t-20.5 -161t-17 -197.5
t-7 -207.5q0 -281 49 -428q271 771 418 1121q35 83 43 92q10 10 22 10q56 0 56 -27q0 -10 -44 -122.5t-136 -365.5t-181 -534q-13 -41 -33.5 -114t-36.5 -131t-41 -133t-48 -132t-56.5 -115.5t-68.5 -97t-80.5 -62.5t-96.5 -24q-65 0 -158.5 34.5t-175.5 98.5q-8 7 -38.5 32
t-51 43t-39 40.5t-18.5 36.5q0 10 7.5 18.5t15.5 8.5q8 -1 19.5 -12.5t25 -29t22.5 -24.5q100 -87 173.5 -122.5t172.5 -35.5q81 0 145 98.5t140 305.5z" />
    <glyph glyph-name="eng" unicode="&#x14b;" horiz-adv-x="512" 
d="M231 350q205 299 277 299q48 0 77 -24.5t29 -69.5q0 -20 -28 -73.5t-70 -132.5t-65 -140q-99 -288 -170 -584q-13 -54 -48 -90.5t-86 -36.5q-64 0 -122.5 21.5t-94 51t-56.5 56t-21 39.5q0 17 26 17q18 0 41 -16.5t43.5 -36t53.5 -36t69 -16.5q17 0 27.5 2t24.5 8.5
t24 24t16 45.5q43 176 90.5 331.5t84 251.5t66.5 167t46 106.5t16 42.5l-6 4q-16 0 -80.5 -71.5t-143 -191.5t-114.5 -224q-2 -7 -6.5 -20.5t-6 -17.5t-4.5 -12.5t-6 -10.5t-7 -6.5t-9.5 -5.5t-12.5 -2t-17 -1q-50 0 -50 39q0 32 37 127q16 46 37.5 111t34.5 103.5t29 86
t26 74.5t19.5 52.5t14.5 36.5t7 11q32 0 66.5 -13.5t34.5 -35.5q0 -16 -5 -23q-64 -149 -88 -217z" />
    <glyph glyph-name="Omacron" unicode="&#x14c;" horiz-adv-x="1173" 
d="M561 -74q-59 0 -127.5 24t-122.5 62q-56 39 -88.5 70.5t-47 65t-18 58.5t-3.5 70q0 192 126 456.5t289 455.5q39 46 63 71.5t65.5 62.5t85 55t89.5 18q65 0 207 -44.5t215 -113.5q105 -97 105 -213q0 -77 -31 -188t-85.5 -233t-134 -243t-169.5 -217.5t-200 -156.5
t-218 -60zM510 2q100 0 201.5 54.5t185 143t157 201t124 228t79.5 225.5t29 193q0 58 -20 106t-53.5 79.5t-77.5 53.5t-91 31.5t-96 9.5q-74 0 -145 -61q-140 -121 -264 -310t-197 -386.5t-74 -346.5q0 -37 11 -69q22 -73 86 -112.5t145 -39.5zM1223 1503q-345 -12 -416 -12
q-23 0 -23 20q0 21 11.5 37.5t31.5 16.5q380 12 426 12q19 0 19 -21q0 -18 -15 -35.5t-34 -17.5z" />
    <glyph glyph-name="omacron" unicode="&#x14d;" horiz-adv-x="555" 
d="M252 -39q-48 0 -78 6q-65 9 -97 59.5t-32 129.5q0 84 60 211.5t137 232.5q95 131 188 131q17 0 30.5 -8t29.5 -23t24 -20q4 -3 15 -11t14.5 -11t12 -11t12 -14t9 -16.5t7.5 -22t4 -27.5t2 -35q0 -68 -28 -164.5t-73 -187.5t-109 -155t-128 -64zM395 180q51 107 77 187.5
t26 156.5q0 103 -56 103q-46 0 -115 -89.5t-120 -211.5t-51 -207q0 -107 65 -107q31 0 63.5 23.5t56 56.5t36.5 55t18 33zM655 838q-43 -1 -155 -5t-192 -7t-89 -3q-24 0 -24 23q0 21 12.5 38t32.5 17q79 2 189 6t174.5 6t84.5 2q21 0 21 -22q0 -20 -16.5 -37.5t-37.5 -17.5
z" />
    <glyph glyph-name="Obreve" unicode="&#x14e;" horiz-adv-x="1173" 
d="M561 -74q-59 0 -127.5 24t-122.5 62q-56 39 -88.5 70.5t-47 65t-18 58.5t-3.5 70q0 192 126 456.5t289 455.5q39 46 63 71.5t65.5 62.5t85 55t89.5 18q65 0 207 -44.5t215 -113.5q105 -97 105 -213q0 -77 -31 -188t-85.5 -233t-134 -243t-169.5 -217.5t-200 -156.5
t-218 -60zM510 2q100 0 201.5 54.5t185 143t157 201t124 228t79.5 225.5t29 193q0 58 -20 106t-53.5 79.5t-77.5 53.5t-91 31.5t-96 9.5q-74 0 -145 -61q-140 -121 -264 -310t-197 -386.5t-74 -346.5q0 -37 11 -69q22 -73 86 -112.5t145 -39.5zM1186 1624q22 18 43 18
q22 0 36.5 -11.5t14.5 -28.5q0 -59 -67.5 -99.5t-147.5 -40.5q-18 0 -43.5 4.5t-56.5 14.5t-52.5 32t-21.5 52q0 25 24.5 49t59.5 35q-14 -31 -14 -50q0 -27 28 -45t74 -18q43 0 84.5 18.5t44.5 47.5q0 14 -6 22z" />
    <glyph glyph-name="obreve" unicode="&#x14f;" horiz-adv-x="555" 
d="M252 -39q-48 0 -78 6q-65 9 -97 59.5t-32 129.5q0 84 60 211.5t137 232.5q95 131 188 131q17 0 30.5 -8t29.5 -23t24 -20q4 -3 15 -11t14.5 -11t12 -11t12 -14t9 -16.5t7.5 -22t4 -27.5t2 -35q0 -68 -28 -164.5t-73 -187.5t-109 -155t-128 -64zM395 180q51 107 77 187.5
t26 156.5q0 103 -56 103q-46 0 -115 -89.5t-120 -211.5t-51 -207q0 -107 65 -107q31 0 63.5 23.5t56 56.5t36.5 55t18 33zM563 979q22 18 45 18q22 0 38 -12.5t16 -30.5q0 -61 -71.5 -103t-156.5 -42q-20 0 -46 4.5t-59 14.5t-55 33t-22 54q0 26 25.5 52.5t62.5 36.5
q-14 -32 -14 -52q0 -28 28.5 -46.5t77.5 -18.5q47 0 90.5 18.5t46.5 48.5q0 17 -6 25z" />
    <glyph glyph-name="Ohungarumlaut" unicode="&#x150;" horiz-adv-x="1173" 
d="M561 -74q-59 0 -127.5 24t-122.5 62q-56 39 -88.5 70.5t-47 65t-18 58.5t-3.5 70q0 192 126 456.5t289 455.5q39 46 63 71.5t65.5 62.5t85 55t89.5 18q65 0 207 -44.5t215 -113.5q105 -97 105 -213q0 -77 -31 -188t-85.5 -233t-134 -243t-169.5 -217.5t-200 -156.5
t-218 -60zM510 2q100 0 201.5 54.5t185 143t157 201t124 228t79.5 225.5t29 193q0 58 -20 106t-53.5 79.5t-77.5 53.5t-91 31.5t-96 9.5q-74 0 -145 -61q-140 -121 -264 -310t-197 -386.5t-74 -346.5q0 -37 11 -69q22 -73 86 -112.5t145 -39.5zM1090 1442q-14 0 -22.5 13
t-8.5 28q0 29 69 133q6 10 18 30.5t20 34t18.5 28.5t19.5 22.5t17 7.5q12 0 22 -10t10 -23q0 -12 -4 -16q-47 -68 -83.5 -134.5t-50 -90t-25.5 -23.5zM1233 1384q-13 0 -22 14t-9 27q0 24 70 136q7 11 18.5 30.5t20.5 33.5t18.5 28t18.5 22t16 8q12 0 22.5 -10t10.5 -22
q0 -13 -4 -19q-47 -68 -83.5 -134.5t-50.5 -90t-26 -23.5z" />
    <glyph glyph-name="ohungarumlaut" unicode="&#x151;" horiz-adv-x="555" 
d="M252 -39q-48 0 -78 6q-65 9 -97 59.5t-32 129.5q0 84 60 211.5t137 232.5q95 131 188 131q17 0 30.5 -8t29.5 -23t24 -20q4 -3 15 -11t14.5 -11t12 -11t12 -14t9 -16.5t7.5 -22t4 -27.5t2 -35q0 -68 -28 -164.5t-73 -187.5t-109 -155t-128 -64zM395 180q51 107 77 187.5
t26 156.5q0 103 -56 103q-46 0 -115 -89.5t-120 -211.5t-51 -207q0 -107 65 -107q31 0 63.5 23.5t56 56.5t36.5 55t18 33zM375 829q-14 0 -23.5 14t-9.5 29q0 27 74 142q7 11 19 31.5t21 35.5t19.5 30.5t19.5 23.5t17 8q14 0 24.5 -10.5t10.5 -24.5q0 -12 -4 -18
q-33 -47 -61 -93.5t-42.5 -74.5t-27 -50.5t-21 -32.5t-16.5 -10zM539 829q-14 0 -23.5 14t-9.5 29q0 27 74 142q7 11 19 31.5t21 35.5t19.5 30.5t19.5 23.5t17 8q14 0 24.5 -10.5t10.5 -24.5q0 -12 -4 -18q-33 -47 -61 -93.5t-42.5 -74.5t-27 -50.5t-21 -32.5t-16.5 -10z
" />
    <glyph glyph-name="OE" unicode="&#x152;" horiz-adv-x="1878" 
d="M1012 178q-228 -252 -451 -252q-59 0 -127.5 24t-122.5 62q-56 39 -88.5 70.5t-47 65t-18 58.5t-3.5 70q0 192 126 456.5t289 455.5q39 46 63 71.5t65.5 62.5t85 55t89.5 18q65 0 207 -44.5t215 -113.5q42 -40 72 -94q37 116 37 155q0 10 10 16.5t27.5 9.5t33.5 4.5
t37 2.5t29 2q416 37 676 37q52 0 79 -8.5t27 -36.5q0 -9 -7 -15.5t-23.5 -10t-27 -5t-35.5 -3t-31 -1.5q-393 -37 -584 -67q-21 -4 -33 -7t-20 -10.5t-11 -12t-10.5 -20t-13.5 -26.5q-91 -164 -262 -602q65 1 209 7.5t188 6.5q67 0 145 -8.5t78 -28.5q0 -47 -115 -47
q-59 -1 -173.5 -10t-137.5 -10q-79 -4 -239 -25q-113 -291 -113 -321q0 -16 10 -20.5t35 -4.5q11 0 109 4t225 8t207 4q125 0 125 -32q0 -12 -15.5 -24t-34.5 -13q-79 -3 -318.5 -21.5t-332.5 -34.5q-60 -12 -86 -12q-23 0 -42 16.5t-19 38.5q0 42 43 160zM510 2
q100 0 201.5 54.5t185 143t157 201t124 228t79.5 225.5t29 193q0 58 -20 106t-53.5 79.5t-77.5 53.5t-91 31.5t-96 9.5q-74 0 -145 -61q-140 -121 -264 -310t-197 -386.5t-74 -346.5q0 -37 11 -69q22 -73 86 -112.5t145 -39.5z" />
    <glyph glyph-name="oe" unicode="&#x153;" horiz-adv-x="913" 
d="M590 530l31 39q106 136 176 136q67 0 116.5 -42t49.5 -77q0 -77 -48 -162t-112 -139t-111 -54q-62 0 -133 48q-57 -105 -57 -164q0 -97 116 -97q52 0 111 30t114.5 80.5t102.5 105t90 114.5q5 7 14.5 20t15 20t12.5 15.5t13 12.5t11 4t11.5 -7t6.5 -14q0 -8 -23 -53
t-68.5 -109.5t-102.5 -125.5t-136.5 -104.5t-158.5 -43.5q-69 0 -128 28t-83 79q-84 -109 -168 -109q-48 0 -78 6q-65 9 -97 59.5t-32 129.5q0 84 60 211.5t137 232.5q95 131 188 131q17 0 30.5 -8t29.5 -23t24 -20q4 -3 15 -11t14.5 -11t12 -11t12 -14t9 -17t7.5 -22.5
t4 -28t2 -35.5zM395 180q51 107 77 187.5t26 156.5q0 103 -56 103q-46 0 -115 -89.5t-120 -211.5t-51 -207q0 -107 65 -107q31 0 63.5 23.5t56 56.5t36.5 55t18 33zM588 332q39 -39 80 -39q50 0 116 72q37 43 69 101t32 107q0 52 -41 52q-43 0 -117 -88t-139 -205z" />
    <glyph glyph-name="Racute" unicode="&#x154;" horiz-adv-x="1091" 
d="M338 371l-76 -213l-28 -84q-26 -84 -39 -105.5t-41 -21.5q-13 0 -31.5 9t-18.5 21q0 17 52 183q64 197 197.5 547.5t189.5 515.5q-30 -7 -121 -28t-128 -29t-97 -16.5t-103 -8.5q-57 0 -57 18q0 16 14 21q226 84 506 144t385 60q132 0 200 -23t144 -93q54 -49 79 -78
t39.5 -66.5t14.5 -87.5q0 -126 -154.5 -266.5t-402.5 -247.5q-31 -74 -54.5 -184.5t-23.5 -173.5q0 -32 3 -56t11.5 -51.5t29 -43t51.5 -15.5q40 0 85 25t83.5 64t66.5 75t49 69q5 9 17.5 29.5t20 32.5t17.5 26.5t17.5 21.5t13.5 7q7 0 11 -9t4 -15q0 -20 -39 -91
q-70 -134 -160.5 -209t-190.5 -75q-101 0 -154.5 82.5t-53.5 230.5q0 5 16 193q-156 -53 -344 -84zM715 1255q-154 -306 -344 -798q183 24 356.5 94t297 160t198.5 193t75 192t-67 138.5t-197 49.5q-141 0 -319 -29zM1083 1673q-60 -41 -125 -95t-100 -84t-45 -30t-17.5 9
t-7.5 20q0 24 34.5 58.5t123.5 99.5q8 5 38.5 29.5t51 37.5t31.5 13q12 0 21.5 -9.5t9.5 -21.5q0 -15 -15 -27z" />
    <glyph glyph-name="racute" unicode="&#x155;" horiz-adv-x="581" 
d="M430 496q-44 -7 -65 -7q-51 0 -91 21q-64 -119 -151 -258q-13 -21 -29 -21q-9 0 -15.5 6.5t-6.5 16.5q0 11 6 20q96 152 162 271q-13 26 -13 55q0 54 31.5 104t63.5 50q15 0 39 -10t24 -21q0 -22 -20.5 -65.5t-20.5 -63.5q0 -21 14.5 -33t38.5 -12q55 0 125 90q6 6 15 6
q17 0 43 -12.5t26 -30.5q0 -4 -59.5 -110.5t-119.5 -236.5t-60 -192q0 -30 24 -30q44 0 106.5 56.5t111 124.5t88 124.5t42.5 56.5q10 0 15.5 -5.5t5.5 -10.5q0 -11 -32.5 -72.5t-80.5 -135.5t-114 -132.5t-123 -58.5q-51 0 -94.5 34.5t-43.5 100.5q0 109 158 381zM748 965
q-64 -43 -132.5 -100t-106 -88.5t-46.5 -31.5q-10 0 -18.5 9t-8.5 20q0 25 36 61.5t130 104.5q8 6 40.5 32t54 40t32.5 14q13 0 23 -10.5t10 -22.5q0 -17 -14 -28z" />
    <glyph glyph-name="Rcommaaccent" unicode="&#x156;" horiz-adv-x="1091" 
d="M338 371l-76 -213l-28 -84q-26 -84 -39 -105.5t-41 -21.5q-13 0 -31.5 9t-18.5 21q0 17 52 183q64 197 197.5 547.5t189.5 515.5q-30 -7 -121 -28t-128 -29t-97 -16.5t-103 -8.5q-57 0 -57 18q0 16 14 21q226 84 506 144t385 60q132 0 200 -23t144 -93q54 -49 79 -78
t39.5 -66.5t14.5 -87.5q0 -126 -154.5 -266.5t-402.5 -247.5q-31 -74 -54.5 -184.5t-23.5 -173.5q0 -32 3 -56t11.5 -51.5t29 -43t51.5 -15.5q40 0 85 25t83.5 64t66.5 75t49 69q5 9 17.5 29.5t20 32.5t17.5 26.5t17.5 21.5t13.5 7q7 0 11 -9t4 -15q0 -20 -39 -91
q-70 -134 -160.5 -209t-190.5 -75q-101 0 -154.5 82.5t-53.5 230.5q0 5 16 193q-156 -53 -344 -84zM715 1255q-154 -306 -344 -798q183 24 356.5 94t297 160t198.5 193t75 192t-67 138.5t-197 49.5q-141 0 -319 -29zM516 -207l-74 -67q-6 -5 -21.5 -19.5t-22.5 -20
t-18 -14.5t-18 -12.5t-12 -3.5q-12 0 -21.5 10t-9.5 23q0 8 11.5 22.5t27 30.5t19.5 22q5 5 39 42.5t60 62.5t36 25q17 0 30 -14t13 -32q0 -11 -6 -20.5t-18 -20.5t-15 -14z" />
    <glyph glyph-name="rcommaaccent" unicode="&#x157;" horiz-adv-x="581" 
d="M430 496q-44 -7 -65 -7q-51 0 -91 21q-64 -119 -151 -258q-13 -21 -29 -21q-9 0 -15.5 6.5t-6.5 16.5q0 11 6 20q96 152 162 271q-13 26 -13 55q0 54 31.5 104t63.5 50q15 0 39 -10t24 -21q0 -22 -20.5 -65.5t-20.5 -63.5q0 -21 14.5 -33t38.5 -12q55 0 125 90q6 6 15 6
q17 0 43 -12.5t26 -30.5q0 -4 -59.5 -110.5t-119.5 -236.5t-60 -192q0 -30 24 -30q44 0 106.5 56.5t111 124.5t88 124.5t42.5 56.5q10 0 15.5 -5.5t5.5 -10.5q0 -11 -32.5 -72.5t-80.5 -135.5t-114 -132.5t-123 -58.5q-51 0 -94.5 34.5t-43.5 100.5q0 109 158 381zM172 -205
q-61 -58 -78 -71q-6 -5 -22.5 -20.5t-23.5 -21.5t-18.5 -15.5t-19 -13t-12.5 -3.5q-12 0 -22.5 11t-10.5 24q0 9 12 24t29 32.5t21 22.5t22 25t33 36t33.5 34.5t32.5 29.5t20 11q19 0 32 -14t13 -33q0 -9 -4.5 -18.5t-9.5 -14.5t-14.5 -13.5t-12.5 -11.5z" />
    <glyph glyph-name="Rcaron" unicode="&#x158;" horiz-adv-x="1091" 
d="M338 371l-76 -213l-28 -84q-26 -84 -39 -105.5t-41 -21.5q-13 0 -31.5 9t-18.5 21q0 17 52 183q64 197 197.5 547.5t189.5 515.5q-30 -7 -121 -28t-128 -29t-97 -16.5t-103 -8.5q-57 0 -57 18q0 16 14 21q226 84 506 144t385 60q132 0 200 -23t144 -93q54 -49 79 -78
t39.5 -66.5t14.5 -87.5q0 -126 -154.5 -266.5t-402.5 -247.5q-31 -74 -54.5 -184.5t-23.5 -173.5q0 -32 3 -56t11.5 -51.5t29 -43t51.5 -15.5q40 0 85 25t83.5 64t66.5 75t49 69q5 9 17.5 29.5t20 32.5t17.5 26.5t17.5 21.5t13.5 7q7 0 11 -9t4 -15q0 -20 -39 -91
q-70 -134 -160.5 -209t-190.5 -75q-101 0 -154.5 82.5t-53.5 230.5q0 5 16 193q-156 -53 -344 -84zM715 1255q-154 -306 -344 -798q183 24 356.5 94t297 160t198.5 193t75 192t-67 138.5t-197 49.5q-141 0 -319 -29zM801 1532q55 38 114.5 87t92 76t39.5 27q10 0 17 -8.5
t7 -19.5q0 -24 -34.5 -58.5t-123.5 -99.5q-9 -7 -38.5 -30t-49.5 -36.5t-30 -13.5q-15 0 -23 8q-10 10 -22 27.5t-31.5 50.5t-22.5 37q-5 8 -13 21.5t-12 20.5t-9 16t-7 15t-2 11q0 15 9 28t22 13q5 0 9 -3.5t12 -16.5t17.5 -29.5t31 -50.5t47.5 -72z" />
    <glyph glyph-name="rcaron" unicode="&#x159;" horiz-adv-x="581" 
d="M430 496q-44 -7 -65 -7q-51 0 -91 21q-64 -119 -151 -258q-13 -21 -29 -21q-9 0 -15.5 6.5t-6.5 16.5q0 11 6 20q96 152 162 271q-13 26 -13 55q0 54 31.5 104t63.5 50q15 0 39 -10t24 -21q0 -22 -20.5 -65.5t-20.5 -63.5q0 -21 14.5 -33t38.5 -12q55 0 125 90q6 6 15 6
q17 0 43 -12.5t26 -30.5q0 -4 -59.5 -110.5t-119.5 -236.5t-60 -192q0 -30 24 -30q44 0 106.5 56.5t111 124.5t88 124.5t42.5 56.5q10 0 15.5 -5.5t5.5 -10.5q0 -11 -32.5 -72.5t-80.5 -135.5t-114 -132.5t-123 -58.5q-51 0 -94.5 34.5t-43.5 100.5q0 109 158 381zM479 844
q57 40 120 92t96.5 80t41.5 28q10 0 18.5 -8.5t8.5 -19.5q0 -25 -36 -61.5t-130 -104.5q-8 -6 -40.5 -32t-54 -40t-32.5 -14q-12 0 -22 10q-11 10 -24.5 30t-31 50t-24.5 41q-4 6 -10.5 16.5t-9.5 16t-8 13.5t-7.5 13t-5 10.5t-3.5 10t-1 8.5q0 15 9 29t23 14q5 0 9 -4
t12.5 -17t18.5 -30.5t32.5 -53.5t50.5 -77z" />
    <glyph glyph-name="Sacute" unicode="&#x15a;" horiz-adv-x="1146" 
d="M1094 43q0 -44 -72 -85.5t-170.5 -65t-183.5 -23.5q-106 0 -208 23.5t-174.5 58.5t-128.5 73.5t-84 70.5t-28 48q0 17 7.5 38.5t17.5 21.5q4 0 22 -23q82 -108 245.5 -165.5t328.5 -57.5q110 0 181 27t71 75q0 40 -26 82.5t-67.5 80.5t-92 78t-101 81t-92 82.5
t-67.5 90.5t-26 97q0 78 49 175t129 187.5t174 167t193.5 123t177.5 46.5q29 0 71 -18.5t79 -58t37 -85.5q0 -48 -81.5 -163t-176.5 -210.5t-131 -95.5q-12 0 -19.5 12.5t-7.5 24.5q0 33 54 99t118 128.5t118 128.5t54 100t-21.5 53t-52.5 19q-83 0 -200 -72t-216.5 -170
t-170 -202.5t-70.5 -165.5q0 -40 30 -84.5t77.5 -86.5t105.5 -86.5t115.5 -90t105 -90.5t77.5 -95.5t30 -97.5zM1257 1647q-61 -41 -126.5 -95t-100.5 -84t-43 -30q-10 0 -18 8.5t-8 17.5q0 25 34 60t123 98q7 5 23.5 18.5t28.5 22.5t26.5 19.5t25 16t17.5 5.5q13 0 22 -9.5
t9 -21.5q0 -16 -13 -26z" />
    <glyph glyph-name="sacute" unicode="&#x15b;" horiz-adv-x="425" 
d="M305 547q-28 -42 -92 -149t-90 -148q-13 -19 -29 -19q-8 0 -14 6t-6 15q0 16 10 31q23 35 107.5 176t144.5 233q19 29 45 29q50 0 70 -12t20 -41q0 -17 -13 -48.5t-14 -35.5q-38 -103 -51.5 -173.5t-13.5 -144.5q0 -38 3 -80.5t3 -52.5q0 -60 -42.5 -109t-102.5 -49
q-55 0 -130 42.5t-118 95.5q-4 4 -4 12q0 10 8 10q2 0 10 -4q42 -26 102.5 -47t104.5 -21q19 0 28 22t9 44q0 119 12.5 204t42.5 214zM647 1034q-64 -43 -132.5 -99.5t-106 -88t-46.5 -31.5q-10 0 -18 9t-8 20q0 25 36 61.5t130 104.5q8 6 40.5 32t54 40t32.5 14
q13 0 23 -10.5t10 -22.5q0 -17 -15 -29z" />
    <glyph glyph-name="Scircumflex" unicode="&#x15c;" horiz-adv-x="1146" 
d="M1094 43q0 -44 -72 -85.5t-170.5 -65t-183.5 -23.5q-106 0 -208 23.5t-174.5 58.5t-128.5 73.5t-84 70.5t-28 48q0 17 7.5 38.5t17.5 21.5q4 0 22 -23q82 -108 245.5 -165.5t328.5 -57.5q110 0 181 27t71 75q0 40 -26 82.5t-67.5 80.5t-92 78t-101 81t-92 82.5
t-67.5 90.5t-26 97q0 78 49 175t129 187.5t174 167t193.5 123t177.5 46.5q29 0 71 -18.5t79 -58t37 -85.5q0 -48 -81.5 -163t-176.5 -210.5t-131 -95.5q-12 0 -19.5 12.5t-7.5 24.5q0 33 54 99t118 128.5t118 128.5t54 100t-21.5 53t-52.5 19q-83 0 -200 -72t-216.5 -170
t-170 -202.5t-70.5 -165.5q0 -40 30 -84.5t77.5 -86.5t105.5 -86.5t115.5 -90t105 -90.5t77.5 -95.5t30 -97.5zM1133 1614q-55 -38 -114.5 -87.5t-91.5 -76.5t-40 -27q-9 0 -17 9.5t-8 19.5q0 24 34.5 58.5t123.5 99.5q9 7 38.5 30.5t50.5 37.5t32 14q9 0 20 -11
q11 -10 23.5 -27.5t30.5 -49t22 -37.5q43 -67 43 -84q0 -15 -9 -28t-22 -13q-5 0 -9 3.5t-11.5 16t-17 29.5t-31 51t-47.5 72z" />
    <glyph glyph-name="scircumflex" unicode="&#x15d;" horiz-adv-x="425" 
d="M305 547q-28 -42 -92 -149t-90 -148q-13 -19 -29 -19q-8 0 -14 6t-6 15q0 16 10 31q23 35 107.5 176t144.5 233q19 29 45 29q50 0 70 -12t20 -41q0 -17 -13 -48.5t-14 -35.5q-38 -103 -51.5 -173.5t-13.5 -144.5q0 -38 3 -80.5t3 -52.5q0 -60 -42.5 -109t-102.5 -49
q-55 0 -130 42.5t-118 95.5q-4 4 -4 12q0 10 8 10q2 0 10 -4q42 -26 102.5 -47t104.5 -21q19 0 28 22t9 44q0 119 12.5 204t42.5 214zM506 987q-57 -40 -120 -92t-96.5 -80.5t-41.5 -28.5q-10 0 -18.5 9t-8.5 20q0 25 36 61.5t130 104.5q8 6 40.5 32t54 40t32.5 14
q13 0 23 -10q11 -10 24.5 -30.5t30 -49.5t24.5 -41q5 -8 14 -22.5t13 -21.5t9.5 -16.5t7.5 -16t2 -11.5q0 -15 -9.5 -29t-23.5 -14q-5 0 -9 4t-12.5 17t-18.5 30.5t-32.5 53.5t-50.5 77z" />
    <glyph glyph-name="Scedilla" unicode="&#x15e;" horiz-adv-x="1146" 
d="M698 -129q-38 -57 -63 -82q18 10 47 10q59 0 59 -53q0 -80 -80 -152.5t-190 -72.5q-24 0 -40.5 6t-16.5 14q0 13 14 13q2 0 16.5 -1.5t32.5 -1.5q48 0 121.5 67t73.5 126q0 23 -31 23q-22 0 -65 -33t-62 -33l-2 2q0 4 4 4q48 50 113 164q-100 4 -195.5 29t-163 59
t-120.5 71t-79 67t-26 46q0 17 7.5 38.5t17.5 21.5q4 0 22 -23q82 -108 245.5 -165.5t328.5 -57.5q110 0 181 27t71 75q0 40 -26 82.5t-67.5 80.5t-92 78t-101 81t-92 82.5t-67.5 90.5t-26 97q0 78 49 175t129 187.5t174 167t193.5 123t177.5 46.5q29 0 71 -18.5t79 -58
t37 -85.5q0 -48 -81.5 -163t-176.5 -210.5t-131 -95.5q-12 0 -19.5 12.5t-7.5 24.5q0 33 54 99t118 128.5t118 128.5t54 100t-21.5 53t-52.5 19q-83 0 -200 -72t-216.5 -170t-170 -202.5t-70.5 -165.5q0 -40 30 -84.5t77.5 -86.5t105.5 -86.5t115.5 -90t105 -90.5
t77.5 -95.5t30 -97.5q0 -41 -64.5 -80.5t-155.5 -63.5t-176 -28z" />
    <glyph glyph-name="scedilla" unicode="&#x15f;" horiz-adv-x="425" 
d="M262 -23q-27 -46 -65 -81q20 10 51 10q61 0 61 -56q0 -85 -84 -161t-200 -76q-25 0 -42.5 6t-17.5 14q0 6 4.5 10.5t10.5 4.5q2 0 17.5 -2t33.5 -2q51 0 128 70t77 132q0 25 -31 25q-24 0 -69.5 -35t-65.5 -35l-2 2q0 3 4 7q53 53 121 174q-53 14 -110.5 50.5t-90.5 78.5
q-4 4 -4 12q0 10 8 10q2 0 10 -4q42 -26 102.5 -47t104.5 -21q19 0 28 22t9 44q0 119 12.5 204t42.5 214q-28 -42 -92 -149t-90 -148q-13 -19 -29 -19q-8 0 -14 6t-6 15q0 16 10 31q23 35 107.5 176t144.5 233q19 29 45 29q50 0 70 -12t20 -41q0 -17 -13 -48.5t-14 -35.5
q-38 -103 -51.5 -173.5t-13.5 -144.5q0 -38 3 -80.5t3 -52.5q0 -53 -35.5 -99.5t-87.5 -56.5z" />
    <glyph glyph-name="Scaron" unicode="&#x160;" horiz-adv-x="1146" 
d="M1094 43q0 -44 -72 -85.5t-170.5 -65t-183.5 -23.5q-106 0 -208 23.5t-174.5 58.5t-128.5 73.5t-84 70.5t-28 48q0 17 7.5 38.5t17.5 21.5q4 0 22 -23q82 -108 245.5 -165.5t328.5 -57.5q110 0 181 27t71 75q0 40 -26 82.5t-67.5 80.5t-92 78t-101 81t-92 82.5
t-67.5 90.5t-26 97q0 78 49 175t129 187.5t174 167t193.5 123t177.5 46.5q29 0 71 -18.5t79 -58t37 -85.5q0 -48 -81.5 -163t-176.5 -210.5t-131 -95.5q-12 0 -19.5 12.5t-7.5 24.5q0 33 54 99t118 128.5t118 128.5t54 100t-21.5 53t-52.5 19q-83 0 -200 -72t-216.5 -170
t-170 -202.5t-70.5 -165.5q0 -40 30 -84.5t77.5 -86.5t105.5 -86.5t115.5 -90t105 -90.5t77.5 -95.5t30 -97.5zM1057 1499q54 38 113.5 88.5t92 77.5t40.5 27q9 0 16.5 -9t7.5 -20q0 -24 -34.5 -58.5t-123.5 -99.5q-9 -7 -38.5 -30.5t-50.5 -37.5t-31 -14q-14 0 -21 11
q-11 10 -23.5 27.5t-30.5 49t-22 37.5q-43 67 -43 84q0 15 8.5 28t22.5 13q5 0 8.5 -3.5t11 -16.5t17.5 -30t31.5 -51t48.5 -73z" />
    <glyph glyph-name="scaron" unicode="&#x161;" horiz-adv-x="425" 
d="M305 547q-28 -42 -92 -149t-90 -148q-13 -19 -29 -19q-8 0 -14 6t-6 15q0 16 10 31q23 35 107.5 176t144.5 233q19 29 45 29q50 0 70 -12t20 -41q0 -17 -13 -48.5t-14 -35.5q-38 -103 -51.5 -173.5t-13.5 -144.5q0 -38 3 -80.5t3 -52.5q0 -60 -42.5 -109t-102.5 -49
q-55 0 -130 42.5t-118 95.5q-4 4 -4 12q0 10 8 10q2 0 10 -4q42 -26 102.5 -47t104.5 -21q19 0 28 22t9 44q0 119 12.5 204t42.5 214zM459 856q57 40 120 92t96.5 80.5t41.5 28.5q10 0 18 -9t8 -20q0 -25 -36 -61.5t-129 -104.5q-8 -6 -40.5 -32t-54 -40t-32.5 -14
q-13 0 -23 10q-11 10 -24.5 30t-31 50t-24.5 41q-4 6 -10.5 16.5t-9.5 16t-8 13.5t-7.5 13t-5 10.5t-3.5 10t-1 8.5q0 15 9.5 29t23.5 14q5 0 9 -4t12.5 -17t18.5 -30.5t32.5 -53.5t50.5 -77z" />
    <glyph glyph-name="Tcommaaccent" unicode="&#x162;" horiz-adv-x="641" 
d="M1128 1159l-247 -22q-107 -228 -232 -567.5t-172 -512.5q-28 -99 -43 -124t-53 -25q-16 0 -35.5 9.5t-19.5 23.5q0 9 4.5 24.5t13.5 42t12 37.5q87 272 170 517.5t136 395t57 162.5q-610 -65 -635 -65q-53 0 -53 28q0 13 11.5 23t23.5 12q197 36 599.5 91t440.5 55
q40 0 60 -1t47 -4.5t39 -13.5t12 -26q0 -12 -5 -21t-15 -15t-19.5 -10t-25.5 -6.5t-25 -3.5t-25.5 -2.5t-20.5 -1.5zM420 -254q-56 -56 -74 -70q-5 -5 -15.5 -14t-16 -14t-14.5 -12.5t-14.5 -11.5t-12 -8.5t-11 -6.5t-8.5 -2q-11 0 -21 10.5t-10 22.5q0 9 11 23t29 31.5
t20 20.5q111 129 133 129q19 0 31 -13t12 -32q0 -7 -2 -13.5t-7.5 -12.5t-8.5 -9.5t-11 -9.5t-10 -8z" />
    <glyph glyph-name="tcommaaccent" unicode="&#x163;" horiz-adv-x="339" 
d="M500 702h-115q-105 -213 -182.5 -401.5t-77.5 -251.5q0 -14 7 -21.5t14 -8.5t20 -1q90 0 270 277q4 6 11 17t11 17t9.5 14.5t9.5 13t8 9.5t7 7t6 2q12 0 12 -15q0 -8 -8 -32q-34 -77 -85 -157t-117.5 -144t-119.5 -64q-49 0 -93 39t-44 94q0 57 45 173.5t184 428.5
q-52 -2 -86.5 -4.5t-47 -4t-15.5 -1.5q-21 0 -21 19q0 8 9 17.5t20 12.5q19 7 164 19q33 68 51 114q13 30 37 48t51 18q10 0 25.5 -19t15.5 -36q0 -9 -4 -15l-55 -104q31 2 65 2q99 0 99 -25q0 -13 -20.5 -25t-59.5 -12zM180 -215q-56 -56 -74 -70q-6 -5 -16 -14t-15.5 -14
t-14 -12.5t-14 -12t-12 -8.5t-11 -6t-7.5 -2q-12 0 -22 10t-10 22q0 9 10.5 23t29 33t19.5 20q111 129 133 129q19 0 31 -13t12 -32q0 -7 -2 -13.5t-7.5 -12.5t-8.5 -9.5t-11 -9.5t-10 -8z" />
    <glyph glyph-name="Tcaron" unicode="&#x164;" horiz-adv-x="641" 
d="M1128 1159l-247 -22q-107 -228 -232 -567.5t-172 -512.5q-28 -99 -43 -124t-53 -25q-16 0 -35.5 9.5t-19.5 23.5q0 9 4.5 24.5t13.5 42t12 37.5q87 272 170 517.5t136 395t57 162.5q-610 -65 -635 -65q-53 0 -53 28q0 13 11.5 23t23.5 12q197 36 599.5 91t440.5 55
q40 0 60 -1t47 -4.5t39 -13.5t12 -26q0 -12 -5 -21t-15 -15t-19.5 -10t-25.5 -6.5t-25 -3.5t-25.5 -2.5t-20.5 -1.5zM805 1397q54 38 114 87.5t92 76t40 26.5q10 0 17 -7.5t7 -18.5q0 -24 -34 -58.5t-123 -99.5q-9 -7 -38.5 -30.5t-50.5 -37.5t-32 -14t-21 10
q-10 9 -22.5 27t-30.5 49.5t-23 38.5q-5 9 -13 21.5t-12.5 20t-9 16t-6.5 15t-2 11.5q0 13 9 27t22 14q5 0 9 -4t12 -16.5t17.5 -29.5t31 -51.5t47.5 -72.5z" />
    <glyph glyph-name="tcaron" unicode="&#x165;" horiz-adv-x="339" 
d="M500 702h-115q-105 -213 -182.5 -401.5t-77.5 -251.5q0 -14 7 -21.5t14 -8.5t20 -1q90 0 270 277q4 6 11 17t11 17t9.5 14.5t9.5 13t8 9.5t7 7t6 2q12 0 12 -15q0 -8 -8 -32q-34 -77 -85 -157t-117.5 -144t-119.5 -64q-49 0 -93 39t-44 94q0 57 45 173.5t184 428.5
q-52 -2 -86.5 -4.5t-47 -4t-15.5 -1.5q-21 0 -21 19q0 8 9 17.5t20 12.5q19 7 164 19q33 68 51 114q13 30 37 48t51 18q10 0 25.5 -19t15.5 -36q0 -9 -4 -15l-55 -104q31 2 65 2q99 0 99 -25q0 -13 -20.5 -25t-59.5 -12zM580 840q-21 0 -21 34q0 35 49 101q24 33 46 65.5
t33.5 51.5t22 34.5t17 22t12.5 6.5q10 0 23.5 -18.5t13.5 -28.5q0 -39 -53 -107q-27 -37 -43.5 -58t-39 -49t-37.5 -41t-23 -13z" />
    </font>
</defs>
</svg>
